Среда обитания / Habitat (Рене Даалдер / Rene Daalder) [1997 г., фантастика, фэнтези, DVD5] АО (А. Гаврилов)

Reply to topic
 
Author Message

$Shorox ®

Gender: Male

Longevity: 7 years 5 months

Posts: 1887

Post 16-Feb-2014 18:50

[Quote]

Среда обитания / Habitat
Год выпуска: 1997
Страна: Канада, Нидерланды
Жанр: фантастика, фэнтези
Продолжительность: 01:43:15
Перевод: Авторский одноголосый Андрей Гаврилов
Режиссер: Рене Даалдер / Rene Daalder
В ролях: Бальтазар Гетти / Balthazar Getty, Чеки Карио / Tchéky Karyo, Элис Крайдж / Alice Krige, Кеннет Уэлш / Kenneth Welsh, Лора Харрис / Laura Harris, Брэд Остин / Brad Austin, Кристофер Хейердал / Christopher Heyerdahl, Кристен Холден-Рид / Kristen Holden-Ried, Дэниэл Пилон / Daniel Pilon, Линн Эдамс / Lynne Adams
Описание: Это был плохой год для Земли. Озоновый слой был уже уничтожен. Сотни видов животных и растений вымерли, а те, что выжили, вынуждены были приспосабливаться к жизни без солнца. Люди были одними из этих видов…
Исследователь-микробиолог Хэнк Саймс случайно создает прогрессирующую форму жизни, активно защищающую себя от внешнего вмешательства. Сын Хэнка, 17-летний Андреас, не разделяющий поначалу увлечений отца, подвергается нападкам со стороны местной молодежной группировки и остается в живых только благодаря защите «среды обитания».

Релиз

Качество: DVD5
Формат: DVD Video
Видео кодек: MPEG2
Аудио кодек: AC3
Видео: MPEG Video, NTSC, 720x480, 4:3, 29.970 fps,
Аудио 1: Русский, AC-3, 192 Kbps, 2 channels, 48.0 KHz
Аудио 2: Английский, AC-3, 384 Kbps, Dolby Digital 3 channels Front: L R, LFE, 48.0 KHz
Аудио 3: Английский, AC-3, 448 Kbps, 6 channels, Front: L C R, Side: L R, LFE, 48.0 KHz
Работа над релизом:




Сэмпл
Пример русской озвучки

Дополнительно

слоган «It'll Grow On You!»
рейтинг MPAA лицам до 17 лет обязательно присутствие взрослого
Also Known As (AKA)
(original title) Habitat
Germany Es lebt!
Greece (video title) Eisvoli sti Kolasi
Hungary Élőhely
Italy (TV title) Habitat-Non entrate
================================================
Для Украины: рип и оригинальный ДВД дополнительно залиты в файлохранилище
Рип дополнительно залит на mail.ru

Отзывы

Фильмы отличный!
Сегодня вспомнил о нем буквально случайно, просматривая саундтреки к фильмам...
-----------------------------------
Соглашусь! Я тоже давно искал его, что бы пересмотреть и забыл название. А сейчас прочитал аннотацию и вспомнил, что это он и есть. Это где родители парня свой дом превратили в этакие джунгли, верно? А потом полиция в конце их по моему захочет уничтожить, а они растворятся в этой среде и парень еще свою девушку прихватит. И эти джунгли типа начнут распространятся по Земле. Как-то так...Типа - зарождение новой жизни на Земле. Я прльно понимаю, этот фильм? Если да- тогда супер! Рекомендую всем
------------------------------------------------
Хороший фильм, немного отличается от того что можно обычно увидеть. У меня он есть на кассете, в момент выхода и купил...
Фильм снят каким-то канадцем за свой счет, потому что в Канаде кино нет, точнее оно примерно как российское - то есть гавно...
Хотя кому какое дело до моего мнения, я смотрю здесь переизбыток всяких жлобов, которым обычно вначале морду арматуриной расквасить надо, потом от души попинать, и только после того обоссышь получившийся полутруп высказывать свое мнение - гавно, а не ресурс, даже сидерить не хочется.
------------------------------------
Спасибо! Да, фильм действительно редкий! Есть ДВД отцифрованный с ВХС на инглиш. Теперь с переводом посмотрю тем более с Гавриловым

Рецензия

Мы все будем такими…
Рене Даалдер, как режиссёр и сценарист, озвучил своим фильмом идею новой ступени эволюции человека, когда мироустройство общества будет опираться не на корыстно-индивидуалистический эгоизм, вместилищем которого является человеческое тело, а — на самые откровенные душевные чувства, призванные не брать, а дарить. Чтобы доступным визуальным языком реализовать свой план, Даалдеру пришлось сделать дуальный акцент: на «быт» семьи исследователя-микробиолога Хэнка Сайма (Чеки Карио), и на повседневную жизнь остального «добропорядочного» общества.
На фоне этого самого общества жизнь членов семьи Хэнка может показаться настоящим притоном вурдалака, потому что «человек — спорит, а природа — действует!» Однако такое впечатление — даже учитывая финальные сцены разгрома домашней лаборатории — кажущееся, ибо жизнь, какой она была до изобретения Хэнка Сайма, показала и доказала свою неспособность эволюционировать. А природа не терпит пустоты. Если ты не в состоянии шагать вперёд — уступи место более успешному и продвинутому виду.
Достоинство фильма заключается ещё и в том, что режиссёр вовсе не истребляет поголовно оставшийся род людской, отдавая предпочтение новому виду (Хэнк и Кларисса), он дарит шанс и Андреасу и Деборе жить на планете, не прячась от Солнца. Кроме того, финальные сцены показывают, что не только молодая пара может рассчитывать на счастливую жизнь. Разумеется, «балласту» в виде учителя физкультуры, которого прекрасно сыграл Кеннет Уэлш, не место в новом мире, поэтому его «утилизируют».
Своей главной темой «Среда обитания» отсылает зрителя к другим фильмам о главенстве природы: «Аномалия» 1993г. (Россия), «Эволюция» 2001г. (США), «Аватар» 2009г. (США) и др. Каждый из них решал вопрос изобразительности по-своему. «Habitat» в этом плане стоит на высоком уровне, и его вариант «растительно-энергетического» бытия лично у меня находит горячий отклик

МедиаИнфо

General
Complete name : F:\Среда обитания Habitat (Rene Daalder) [1997]\VIDEO_TS\VTS_01_1.VOB
Format : MPEG-PS
File size : 1 024 MiB
Duration : 35mn 38s
Overall bit rate mode : Variable
Overall bit rate : 4 016 Kbps
Video
ID : 224 (0xE0)
Format : MPEG Video
Format version : Version 2
Format profile : Main@Main
Format settings, BVOP : Yes
Format settings, Matrix : Default
Format settings, GOP : M=2, N=13
Duration : 35mn 38s
Bit rate mode : Variable
Bit rate : 2 912 Kbps
Maximum bit rate : 8 000 Kbps
Width : 720 pixels
Height : 480 pixels
Display aspect ratio : 4:3
Frame rate : 29.970 fps
Standard : NTSC
Color space : YUV
Chroma subsampling : 4:2:0
Bit depth : 8 bits
Scan type : Interlaced
Scan order : Top Field First
Compression mode : Lossy
Bits/(Pixel*Frame) : 0.281
Time code of first frame : 10:00:09;00
Time code source : Group of pictures header
Stream size : 743 MiB (73%)
Color primaries : BT.601 PAL
Transfer characteristics : BT.470 System B, BT.470 System G
Matrix coefficients : BT.601
Audio #1
ID : 189 (0xBD)-128 (0x80)
Format : AC-3
Format/Info : Audio Coding 3
Mode extension : CM (complete main)
Format settings, Endianness : Big
Muxing mode : DVD-Video
Duration : 35mn 38s
Bit rate mode : Constant
Bit rate : 192 Kbps
Channel count : 2 channels
Channel positions : Front: L R
Sampling rate : 48.0 KHz
Bit depth : 16 bits
Compression mode : Lossy
Stream size : 48.9 MiB (5%)
Audio #2
ID : 189 (0xBD)-129 (0x81)
Format : AC-3
Format/Info : Audio Coding 3
Format profile : Dolby Digital
Mode extension : CM (complete main)
Format settings, Endianness : Big
Muxing mode : DVD-Video
Duration : 35mn 38s
Bit rate mode : Constant
Bit rate : 384 Kbps
Channel count : 3 channels
Channel positions : Front: L R, LFE
Sampling rate : 48.0 KHz
Bit depth : 16 bits
Compression mode : Lossy
Stream size : 97.9 MiB (10%)
Audio #3
ID : 189 (0xBD)-130 (0x82)
Format : AC-3
Format/Info : Audio Coding 3
Mode extension : CM (complete main)
Format settings, Endianness : Big
Muxing mode : DVD-Video
Duration : 35mn 38s
Bit rate mode : Constant
Bit rate : 448 Kbps
Channel count : 6 channels
Channel positions : Front: L C R, Side: L R, LFE
Sampling rate : 48.0 KHz
Bit depth : 16 bits
Compression mode : Lossy
Stream size : 114 MiB (11%)

Скриншоты меню

Меню
[


Скриншоты фильма





Скриншоты использованных программ

VirtualDubMod 1.5.10.2. All inclusive - Извлечение звуковых файлов
BeSweet +BeLight - Кодирование звуковых файлов
PgcDemux 1.2.0.4 - Разборка DVD
Adobe Audition CC - Синхронизация звуковых файлов
Minnetonka SurCode for Dolby Digital - Кодирование звуковых файлов
Muxman - сборка DVD
DVDRemake Pro - реавторинг DVD
CyberLink PowerDVD - Проверка правильности расположения дорожек и субтитров, проверка работы на софтплеере
VirtualDubMod

BeSweet

PgcDemux

Minnetonka

Muxman

DVDRemake 1

DVDRemake 2

CyberLink
cd DVD дополнительно залит на mail.ru cd2
[Profile] [PM]
Display posts:    
Reply to topic

Current time is: 03-Jun 12:42

All times are UTC + 3



You cannot post new topics in this forum
You cannot reply to topics in this forum
You cannot edit your posts in this forum
You cannot delete your posts in this forum
You cannot vote in polls in this forum
You cannot attach files in this forum
You cannot download files in this forum