Потерянный горизонт / Lost Horizon (Чарльз Джэррот / Charles Jarrott) [1973 г., фэнтези, мелодрама, драма, мюзикл, приключения, BDRip-1080p] ПМ

Reply to topic
 
Author Message

admin ®

Gender: Male

Longevity: 7 years 10 months

Posts: 4799

Post 15-Feb-2014 06:02

[Quote]

Потерянный горизонт / Lost Horizon
Год выпуска: 1973
Страна: США
Жанр: фэнтези, мелодрама, драма, мюзикл, приключения
Продолжительность: 02:30:00
Перевод: Профессиональный (многоголосый, закадровый) СВ-Дубль по заказу канала Культура
Режиссер: Чарльз Джэррот / Charles Jarrott
В ролях:
Peter Finch ... Richard Conway
Liv Ullmann ... Catherine
Sally Kellerman ... Sally Hughes
George Kennedy ... Sam Cornelius
Michael York ... George Conway
Olivia Hussey ... Maria
Bobby Van ... Harry Lovett
James Shigeta ... Brother To-Lenn
Charles Boyer ... The High Lama
John Gielgud ... Chang
Kent Smith ... Bill Fergunson
John Van Dreelen ... Dr. Verden
Larry Duran ... Asian Pilot
Miiko Taka ... Nurse
Tybee Brascia
Описание: Ремейк картины 1937 года.
В 1935 году во время восстания в Китае самолет с пятью англичанами и американцами на борту совершил вынужденную посадку в глухих горах Тибета, там, где еще не ступала нога цивилизованного человека. Бедняги уже готовы были распроститься с жизнью, как вдруг к ним пришло спасение в виде странных буддийских монахов, глава которых, к их удивлению, говорил на английском. Он приводит их в сказочную страну Шангри-Ла, ранее никому не известную. В этой идеальной стране здоровье, мир и долголетие правят людьми в отличие от всего остального, цивилизованного мира. Основной принцип их "идеологии" - отказ от излишеств...
cd В 1937 году увидела свет оригинальная версия данной картины cd2 cd Читать книгу Джеймс Хилтон "Утерянный Горизонт" (1933) on-line cd2Качество: BDRip-1080p
Формат: MKV
Видео: x264, 8947 кбит/с, 1920x800, 23.976 к/с,
Аудио 1: Русский ПМ (AC3, 2 ch, 384 Кбит/с)
Аудио 2: Английский (DTS, 6 ch, 1509 Кбит/с)
Субтитры : Английские
Работа над релизом:
Рип найден в юзенете.
Полный пересинхрон русской дорожки - sasha20072007 (kosmoaelita)
Сравнение: kosmoaelita.com vs. rutracker



Пример русской озвучки

Дополнительно

слоган «Come to Shangri La!»
бюджет $12 000 000
Also Known As (AKA)
(original title) Lost Horizon
Brazil Horizonte Perdido
Denmark Tabte horisonter
Spain Horizontes perdidos
Finland Shangri-la
France Horizons perdus
Greece (transliterated ISO-LATIN-1 title) Hamenos orizon
Hungary A Kék Hold völgye
Italy Orizzonte perduto
Poland Zagubiony horyzont
Portugal Horizonte Perdido
Sweden Bortom horisonten
West Germany Der verlorene Horizont
================================================
Для Украины: рип дополнительно залит в файлохранилище [/url]
Рип дополнительно залит на mail.ru
Для удаления,добавления и извлечения дорожек в mkv используйте бесплатную портативную [url=http://yadi.sk/d/0mEYOFzCEhmAg]mkvmerge GUI 6.6.0

Для присоединения потом дорожек к avi воспользуйтесь VirtualDubMod

Отзывы

MediaInfo

Общее
Уникальный идентификатор : 186855046194015461619042068258848484888 (0x8C92F90E2BEDFDF4A3F7B6C52CE7AE18)
Полное имя : N:\Lost Horizon 1973.x264.BDRip.1080p.kosmoaelita.mkv
Формат : Matroska
Версия формата : Version 4 / Version 2
Размер файла : 11,3 Гбайт
Продолжительность : 2 ч. 29 м.
Общий поток : 10,8 Мбит/сек
Название фильма : Lost Horizon / 1973 / BDRip-1080p / kosmoaelita
Дата кодирования : UTC 2014-02-15 23:58:19
Программа кодирования : mkvmerge v6.6.0 ('The Edge Of The In Between') built on Dec 7 2013 13:21:48
Библиотека кодирования : libebml v1.3.0 + libmatroska v1.4.1
Attachment : Yes
Видео
Идентификатор : 1
Формат : AVC
Формат/Информация : Advanced Video Codec
Профиль формата : High@L4.1
Параметр CABAC формата : Да
Параметр ReFrames формата : 5 кадров
Идентификатор кодека : V_MPEG4/ISO/AVC
Продолжительность : 2 ч. 29 м.
Битрейт : 8947 Кбит/сек
Ширина : 1920 пикселей
Высота : 800 пикселей
Соотношение сторон : 2,40:1
Режим частоты кадров : Постоянный
Частота кадров : 23,976 кадра/сек
Цветовое пространство : YUV
Субдискретизация насыщенности : 4:2:0
Битовая глубина : 8 бит
Тип развёртки : Прогрессивная
Бит/(Пиксели*Кадры) : 0.243
Размер потока : 9,12 Гбайт (81%)
Заголовок : Релиз www.kosmoaelita.com
Библиотека кодирования : x264 core 140 r2377 1ca7bb9
Настройки программы : cabac=1 / ref=5 / deblock=1:0:0 / analyse=0x3:0x113 / me=umh / subme=7 / psy=1 / psy_rd=1.00:0.00 / mixed_ref=1 / me_range=16 / chroma_me=1 / trellis=1 / 8x8dct=1 / cqm=0 / deadzone=21,11 / fast_pskip=0 / chroma_qp_offset=-2 / threads=12 / lookahead_threads=2 / sliced_threads=0 / nr=0 / decimate=1 / interlaced=0 / bluray_compat=0 / constrained_intra=0 / bframes=3 / b_pyramid=2 / b_adapt=2 / b_bias=0 / direct=3 / weightb=1 / open_gop=0 / weightp=2 / keyint=240 / keyint_min=23 / scenecut=40 / intra_refresh=0 / rc_lookahead=50 / rc=2pass / mbtree=1 / bitrate=8947 / ratetol=1.0 / qcomp=0.60 / qpmin=0 / qpmax=69 / qpstep=4 / cplxblur=20.0 / qblur=0.5 / vbv_maxrate=62500 / vbv_bufsize=78125 / nal_hrd=none / filler=0 / ip_ratio=1.40 / aq=1:1.00
Язык : English
Default : Да
Forced : Нет
Аудио #1
Идентификатор : 3
Формат : AC-3
Формат/Информация : Audio Coding 3
Расширение режима : CM (complete main)
Параметр Endianness формата : Big
Идентификатор кодека : A_AC3
Продолжительность : 2 ч. 29 м.
Вид битрейта : Постоянный
Битрейт : 384 Кбит/сек
Каналы : 2 канала
Расположение каналов : Front: L R
Частота : 48,0 КГц
Битовая глубина : 16 бит
Метод сжатия : С потерями
Размер потока : 411 Мбайт (4%)
Заголовок : Русский ПМ (СВ-Дубль) по заказу канала Культура
Язык : Russian
Default : Да
Forced : Нет
Аудио #2
Идентификатор : 4
Формат : DTS
Формат/Информация : Digital Theater Systems
Режим : 16
Параметр Endianness формата : Big
Идентификатор кодека : A_DTS
Продолжительность : 2 ч. 29 м.
Вид битрейта : Постоянный
Битрейт : 1509 Кбит/сек
Каналы : 6 каналов
Расположение каналов : Front: L C R, Side: L R, LFE
Частота : 48,0 КГц
Битовая глубина : 24 бит
Метод сжатия : С потерями
Размер потока : 1,58 Гбайт (14%)
Заголовок : Eng DTS 5.1 1509
Язык : English
Default : Нет
Forced : Нет
Текст #1
Идентификатор : 2
Формат : UTF-8
Идентификатор кодека : S_TEXT/UTF8
Идентификатор кодека/Информация : UTF-8 Plain Text
Заголовок : Eng fors
Язык : English
Default : Да
Forced : Нет
Текст #2
Идентификатор : 5
Формат : UTF-8
Идентификатор кодека : S_TEXT/UTF8
Идентификатор кодека/Информация : UTF-8 Plain Text
Язык : English
Default : Нет
Forced : Нет
Текст #3
Идентификатор : 6
Формат : UTF-8
Идентификатор кодека : S_TEXT/UTF8
Идентификатор кодека/Информация : UTF-8 Plain Text
Заголовок : русский форс гуглоперевод
Default : Нет
Forced : Нет
cd Рип дополнительно залит на mail.ru cd2 cd Lost Horizon - оригинальная картина 1937 года cd2


Last edited by admin on 2016-07-18 02:50; edited 19 times in total
[Profile] [PM]

admin ®

Gender: Male

Longevity: 7 years 10 months

Posts: 4799

Post 15-Feb-2014 17:32 (after 11 hours)

[Quote]

Сравнение: kosmoaelita.com vs. rutracker
[Profile] [PM]

Guest

Gender: Unknown

Post 30-Mar-2014 15:25 (after 1 month 14 days)

[Quote]

Поправьте. Этот фильм всё-же 1972 года. Смотрите титры самого фильма пожалуйста господа оформляющие. Нефиг верить всяким кинопоиск.ру и даже википедии. Смотрите титры. Я за точность.
 
Display posts:    
Reply to topic

Current time is: 12-Jul 18:34

All times are UTC + 3



You cannot post new topics in this forum
You cannot reply to topics in this forum
You cannot edit your posts in this forum
You cannot delete your posts in this forum
You cannot vote in polls in this forum
You cannot attach files in this forum
You cannot download files in this forum