Беглец / Грабитель / Мародер / Spoiler (Джефф Барр / Jeff Burr) [1998 г., Фантастика, боевик, драма, DVDRip] ПМ

Reply to topic
 
Author Message

admin ®

Gender: Male

Longevity: 7 years 6 months

Posts: 4811

Post 15-Feb-2014 03:33

[Quote]

Беглец / Грабитель / Мародер / Spoiler
Год выпуска: 1998
Страна: США, Ed Ancoats Inc.
Жанр: Фантастика, боевик, драма
Продолжительность: 01:32:26
Перевод: Профессиональный (многоголосый, закадровый)
Режиссер: Джефф Барр / Jeff Burr
В ролях:
Gary Daniels ... Roger Mason
Meg Foster ... Woman #1
Bryan Genesse ... Bounty #1
Jeffrey Combs ... Captain
Nicholas Sadler ... Renny
Steven Schub ... Phil
Stewart Finlay-McLennan ... Lory (as Stewart McLennan)
Joe Unger ... Clemets
Sarah Freeman ... Maggie (as Sarah Rayne)
David Groh ... Uncle Hutchy
Bruce Glover ... Priest
Jean Speegle Howard ... Jillian / Jennifer
Willard E. Pugh ... Bounty #2
Duane Whitaker ... Sergeant
Arye Gross ... The Attendant
Описание: Бета Галактика - тюрьма для особо опасных преступников. Один из ее секторов - криогенный, где содержатся самые отъявленные нарушители закона. Система охраны в криогенной тюрьме - безупречна, и только сумасшедший бросит ей вызов. Однако, главному герою хватает мужества сделать это.
Роджер Мэйсон. Невинный человек, осужденный за то, чего он не совершал. Но Роджер не хотел с этим мириться и находил способы сбегать при каждой малейшей возможности. Армия, полиция, и даже охотники за головами не могли его удержать. Именно поэтому главный герой попадает в Бета Галактикау.
70 лет проходят в криогенной тюрьме. Каждый день Роджер вспоминает о людях, которых он любит, особенно о дочери Джиллиан. Единственная надежда вновь увидеть ее и объясниться - опять бежать.
Только дорогие сердцу люди уже состарились, и его дочь - не исключение.

Качество: DVDRip
Формат: MKV
Видео: x264, 1855 кбит/с, 720x516, 25 к/с
Аудио 1: Русский ПМ (AC3, 2 ch, 192 Кбит/с)
Аудио 2: Английский (AC3, 2 ch, 192 Кбит/с)
Субтитры : Испанские ()
Работа над релизом:




Трейлер

Дополнительно

слоган «No prison can hold him... no system can control him»
Also Known As (AKA)
(original title) Spoiler
Germany Spoiler - Verdammt im Eis
Greece (video title) Spoiler
Portugal O Salto Mortal
================================================
Для Украины: рип и оригинальный ДВД дополнительно залиты в файлохранилище
Рип дополнительно залит на mail.ru
Для удаления,добавления и извлечения дорожек в mkv используйте бесплатную портативную mkvmerge GUI 6.6.0
Для присоединения потом дорожек к avi воспользуйтесь VirtualDubMod

Отзывы

огромнейшее СПАСИБО раздающему за выкладку этого замечательного фильма.на мой взгляд это одна из лучших картин кинематографа 90-ых годов.тем кто не видел это кино - качайте.не пожалеете.
------------------------------------------
Кому интересно, фильм на самом деле называется грабитель или же мародёр.
Мне интересно! Я считаю, что это одна из лучших работ мистера Дэниелса и по его мнению тоже так.
Спасибо, что уточнили название, фильмы частенько переводят не правильно и их сложно искать
Спасибо тому, кто залил и всем кто остается на раздаче, я вас обожаю!
---------------------------------------
сильный фильм, качайте, ребята! это по сути драма о силе человеческого духа, а фантастический сюжет - только для затравки. дэниэлс сыграл отлично. раздающему - СПАСИБО!

Рецензия

В фильме на всем его протяжении нет ничего особенного. Обычный боевик с элементами фантастики. Спецэффекты на среднем уровне. Фильм не производит впечатления. Цель главного героя — побег любой ценой ради того, чтобы увидеть дочь несколько надуманная.
Однако последняя сцена, где главный герой все-таки встречает свою дочь (к тому времени будучи в глубокой старости и при смерти) уникальна.
Не знаю почему, но это один из двух фильмов, который вызывает у меня слезы.
==================================================================================
Andrew2a1
рецензии (69)оценкидрузья
Тюрьма будущего.
Прежде всего хотелось бы отметить оригинальность жанра этого хоть и малобюджетного, но безусловно хорошего фильма. Я бы оценил его, как боевик с элементами научной фантастики, мелодрамы и даже черной комедии. Очень неплохая игра Гэри Даниелса, который приятно удивил меня своими актерскими способностями, не взирая на то, что всю карьеру он играет злодеев и добряков, отягощенных боевыми искусствами. Здесь же он наконец вышел из своего амплуа супер-каратиста в кимоно и предстал героем-заключенным, который хочет увидеть свою дочь и объясниться с нею.
Идея замораживания в тюрьме немного схожа с «Разрушителем» Слая, но здесь она имеет другой смысл — герой страдает от потери этого времени и все равно все время сбегает. Среди прочих актеров я приметил Тиммоти Ботоммса, который играет блюстителя порядка и отличается весьма своеобразной системой допроса: «Сейчас я тебя засуну в этот ящик стола, а твое достоинство вытащу наружу. И начну этот ящик открывать и закрывать. После этого ты заговоришь по-английски?» Не взирая на то, что общая тематика — «Человека посадили за преступление, которого он не совершал» уже встречалась не раз, фильм весьма непредсказуемый и опять же повторяюсь оригинальный. Рекомендую к просмотру.
9 из 10

MediaInfo

Общее
Уникальный идентификатор : 185045584200655454498795707833694113266 (0x8B367BB0F47309F0B53CB7BBB39D4DF2)
Полное имя : N:\Spoiler 1998.x264.DVDRip.kosmoaelita.mkv
Формат : Matroska
Версия формата : Version 4 / Version 2
Размер файла : 1,45 Гбайт
Продолжительность : 1 ч. 32 м.
Общий поток : 2242 Кбит/сек
Название фильма : Беглец / Spoiler / 1998 / kosmoaelita
Дата кодирования : UTC 2014-02-16 06:34:54
Программа кодирования : mkvmerge v6.6.0 ('The Edge Of The In Between') built on Dec 7 2013 13:21:48
Библиотека кодирования : libebml v1.3.0 + libmatroska v1.4.1
Видео
Идентификатор : 1
Формат : AVC
Формат/Информация : Advanced Video Codec
Профиль формата : High@L4.1
Параметр CABAC формата : Да
Параметр ReFrames формата : 10 кадров
Идентификатор кодека : V_MPEG4/ISO/AVC
Продолжительность : 1 ч. 32 м.
Битрейт : 1855 Кбит/сек
Ширина : 720 пикселей
Высота : 516 пикселей
Соотношение сторон : 1,395
Режим частоты кадров : Постоянный
Частота кадров : 25,000 кадров/сек
Цветовое пространство : YUV
Субдискретизация насыщенности : 4:2:0
Битовая глубина : 8 бит
Тип развёртки : Прогрессивная
Бит/(Пиксели*Кадры) : 0.200
Размер потока : 1,17 Гбайт (81%)
Библиотека кодирования : x264 core 130 r2273 b3065e6
Настройки программы : cabac=1 / ref=10 / deblock=1:-2:-3 / analyse=0x3:0x133 / me=umh / subme=9 / psy=1 / psy_rd=0.98:0.14 / mixed_ref=1 / me_range=24 / chroma_me=1 / trellis=2 / 8x8dct=1 / cqm=0 / deadzone=21,11 / fast_pskip=1 / chroma_qp_offset=-3 / threads=6 / lookahead_threads=1 / sliced_threads=0 / nr=0 / decimate=1 / interlaced=0 / bluray_compat=0 / constrained_intra=0 / bframes=10 / b_pyramid=2 / b_adapt=2 / b_bias=0 / direct=3 / weightb=1 / open_gop=0 / weightp=2 / keyint=200 / keyint_min=20 / scenecut=40 / intra_refresh=0 / rc_lookahead=60 / rc=2pass / mbtree=1 / bitrate=1855 / ratetol=1.0 / qcomp=0.63 / qpmin=0 / qpmax=69 / qpstep=4 / cplxblur=20.0 / qblur=0.5 / ip_ratio=1.25 / aq=1:0.90
Default : Да
Forced : Нет
Аудио #1
Идентификатор : 2
Формат : MPEG Audio
Версия формата : Version 1
Профиль формата : Layer 3
Режим : Joint stereo
Расширение режима : MS Stereo
Идентификатор кодека : A_MPEG/L3
Идентификатор кодека/Подсказка : MP3
Продолжительность : 1 ч. 32 м.
Вид битрейта : Постоянный
Битрейт : 192 Кбит/сек
Каналы : 2 канала
Частота : 48,0 КГц
Метод сжатия : С потерями
Размер потока : 127 Мбайт (9%)
Заголовок : Русский ПМ
Язык : Russian
Default : Да
Forced : Нет
Аудио #2
Идентификатор : 3
Формат : AC-3
Формат/Информация : Audio Coding 3
Расширение режима : CM (complete main)
Параметр Endianness формата : Big
Идентификатор кодека : A_AC3
Продолжительность : 1 ч. 32 м.
Вид битрейта : Постоянный
Битрейт : 192 Кбит/сек
Каналы : 2 канала
Расположение каналов : Front: L R
Частота : 48,0 КГц
Битовая глубина : 16 бит
Метод сжатия : С потерями
Размер потока : 127 Мбайт (9%)
Язык : English
Default : Нет
Forced : Нет
Текст
Идентификатор : 4
Формат : VobSub
Режим смешивания : zlib
Идентификатор кодека : S_VOBSUB
Идентификатор кодека/Информация : The same subtitle format used on DVDs
Язык : Spanish
Default : Нет
Forced : Нет

Скриншоты













cd Рип дополнительно залит на mail.ru cd2


Last edited by admin on 2014-02-15 03:42; edited 3 times in total
[Profile] [PM]

admin ®

Gender: Male

Longevity: 7 years 6 months

Posts: 4811

Post 15-Feb-2014 03:36 (after 2 minutes)

[Quote]

Представлена полноєкранная версия
http://screenshotcomparison.com/comparison/62596
[Profile] [PM]
Display posts:    
Reply to topic

Current time is: 31-Mar 01:40

All times are UTC + 3



You cannot post new topics in this forum
You cannot reply to topics in this forum
You cannot edit your posts in this forum
You cannot delete your posts in this forum
You cannot vote in polls in this forum
You cannot attach files in this forum
You cannot download files in this forum