Реактивный поток / Jet Stream (Джеффри Скотт Ландо / Jeffery Scott Lando) [2013 г., Фантастика, боевик, драма, приключения, BDRip-1080p (ScenRip)] ПД (НТВ+)

Reply to topic
 
Author Message

admin ®

Gender: Male

Longevity: 6 years 8 months

Posts: 4725

Location: Україна

Post 04-Feb-2014 23:27

[Quote]

Реактивный поток / Jet Stream
Год выпуска: 2013
Страна: Канада, США, Болгария, Bulgarian Unified Film Organization, Odyssey Media, UFO International Productions
Жанр: Фантастика, боевик, драма, приключения
Продолжительность: 01:25:50
Перевод: Профессиональный (двухголосый) НТВ+
Режиссер: Джеффри Скотт Ландо / Jeffery Scott Lando
В ролях:
David Chokachi ... Steve 'Sunny' Simpson
Ruth Kearney ... Angel
Steven Hartley ... Jack
Don Michael Paul ... Major Shaw
Preston James Hillier ... Daniel
Atanas Srebrev ... Agent Bo
Hristo Stefanov ... Pilot
Hristo Balabanov ... Co-Pilot
Angela Rodel ... Conspirator #1
Owen Davis ... Bob
Zara Dimitrova ... News Anchorwoman
Harry Anichkin ... Louie
Terry Randall ... Senior Trucker
Velislav Pavlov ... Warehouse Worker
Don Anderson ... Workstation Operator #1
Описание: Небольшой городок в штате Небраска, согласно сюжету фильма «Реактивный поток» (Jet Stream), гибнет буквально за несколько минут – сильнейший ветер, налетевший с востока, превращает его в руины. Ни одно здание, ни один человек не смогли пережить катастрофу. Но невиданный торнадо не останавливается на этом и движется дальше. Метеоролог, работающий на телевидении, пытается проанализировать движение ветров. Он приходит к выводу, что серия необъяснимых природных катастроф – результат того, что воздушные потоки из верхних слоев атмосферы, стратосферы, способные достигать скорости в 800 км/ч, опускаются к самой земле. Герою картины «Реактивный поток» поначалу никто не верит, но последовавшие вскоре катастрофические погодные явления все же заставят прислушаться к его теории…
Качество: BDRip-1080p (ScenRip)
Формат: MKV
Видео: x264, 9420 кбит/с, 1920x1080, 23.976 к/с
Аудио 1: Русский ПД (НТВ+) (AC3, 2 ch, 192 Кбит/с)
Аудио 2: Английский (DTS, 6 ch, 1509 Кбит/с)
Работа над релизом:
Рип найден в юзенете.
Синхрон русской дорожки - sasha20072007 (kosmoaelita)



Трейлер

Дополнительно

слоган «It brings destruction at 500mph»
Also Known As (AKA)
(original title) Jet Stream
France Tornado apocalypse
Poland Wiatr niosacy smierc
================================================
Для Украины: рип дополнительно залит в файлохранилище
Рип дополнительно залит на mail.ru
Для удаления,добавления и извлечения дорожек в mkv используйте бесплатную портативную mkvmerge GUI 6.6.0
Для присоединения потом дорожек к avi воспользуйтесь VirtualDubMod

Отзывы

Состав актеров, или "актеров"(?) - говорит сам за себя.
Сразу все понятно, и сюжет, и канва, и развязка ab
-------------------------------------------------------------
Торнадо - фломастерами рисовали, на прозрачной плёночке, которую держали перед объективом. Только руки иногда тряслись...
-----------------------------------------------------------
Фильм конечно оставляет желать лучшего....... сюжет ни о чём, и компьютерной графики через чур...... лучше пересматривать старый и добрый "Смерч" 1996 года!!!
----------------------------------------------
как видно в конце трейлера на кинопоиске, мы видим что сцена взята из фильма «послезавтра» 2004 года выпуска. в самом фильме дешевые спецэффекты, все эти штормы на глаз выглядят не не реалистично.
------------------------------------------------
Фильм для ТВ3?

Рецензия

И пронесутся разрушения
Картина «Реактивный поток» режиссёра Джеффри Скотта Ландо ("Дом из костей») рассказывает нам о том что будет если военные будут проводить опыты над погодой. Судя по всему у создателей картины совсем закончилась фантазия и новых идей совсем нету. Фильм мне очень напомнил «Максимальное ускорение» 2003 года, даже постеры очень похожие.
Спецэффекты в картине спустя 10 лет уже выглядят куда лучше но увы как всегда их очень мало, лишь несколько сцен шторма, разве только происходящие действия в летящем самолёте достойно смотрелись.
Актёров особо известных в фильме увидеть не удалось, разве только Дэвида Чокачи, жалко что такому хорошему актёру не дают больших проектов, но играет он выше уровня фильма, ещё понравились Рут Кирни, Стивен Хартли, Гарри Аничкин и Дон Майкл Пол, играли неплохо, хотя особо ничего от них и не требовалось.
В целом вышел обычный фильм — катастрофа весьма среднего качества, один раз можно вполне посмотреть, но не больше.
7 из 10

MediaInfo

Общее
Уникальный идентификатор : 170711277236799749096246772640694949591 (0x806DCBCB144DBF00A32B5F60838856D7)
Полное имя : N:\Jet Stream 2013.x264.BDRip.1080p.kosmoaelita.mkv
Формат : Matroska
Версия формата : Version 4 / Version 2
Размер файла : 6,66 Гбайт
Продолжительность : 1 ч. 25 м.
Общий поток : 11,1 Мбит/сек
Название фильма : Реактивный поток / Jet Stream / 2013 / BDRip-1080p ScenRip
Дата кодирования : UTC 2014-02-04 20:09:19
Программа кодирования : mkvmerge v6.6.0 ('The Edge Of The In Between') built on Dec 7 2013 13:21:48
Библиотека кодирования : libebml v1.3.0 + libmatroska v1.4.1
Attachment : Yes
Видео
Идентификатор : 1
Формат : AVC
Формат/Информация : Advanced Video Codec
Профиль формата : High@L4.1
Параметр CABAC формата : Да
Параметр ReFrames формата : 4 кадра
Идентификатор кодека : V_MPEG4/ISO/AVC
Продолжительность : 1 ч. 25 м.
Битрейт : 9420 Кбит/сек
Ширина : 1920 пикселей
Высота : 1080 пикселей
Соотношение сторон : 16:9
Режим частоты кадров : Постоянный
Частота кадров : 23,976 кадра/сек
Цветовое пространство : YUV
Субдискретизация насыщенности : 4:2:0
Битовая глубина : 8 бит
Тип развёртки : Прогрессивная
Бит/(Пиксели*Кадры) : 0.189
Размер потока : 5,51 Гбайт (83%)
Библиотека кодирования : x264 core 140 r2377 1ca7bb9
Настройки программы : cabac=1 / ref=4 / deblock=1:0:0 / analyse=0x3:0x133 / me=umh / subme=7 / psy=1 / psy_rd=1.00:0.00 / mixed_ref=1 / me_range=16 / chroma_me=1 / trellis=1 / 8x8dct=1 / cqm=0 / deadzone=21,11 / fast_pskip=0 / chroma_qp_offset=-2 / threads=18 / lookahead_threads=3 / sliced_threads=0 / nr=0 / decimate=1 / interlaced=fake / bluray_compat=0 / constrained_intra=0 / bframes=3 / b_pyramid=2 / b_adapt=1 / b_bias=0 / direct=1 / weightb=1 / open_gop=0 / weightp=2 / keyint=240 / keyint_min=23 / scenecut=40 / intra_refresh=0 / rc_lookahead=40 / rc=2pass / mbtree=1 / bitrate=9420 / ratetol=1.0 / qcomp=0.60 / qpmin=10 / qpmax=69 / qpstep=4 / cplxblur=20.0 / qblur=0.5 / ip_ratio=1.40 / aq=1:1.00
Язык : English
Default : Да
Forced : Нет
Аудио #1
Идентификатор : 2
Формат : AC-3
Формат/Информация : Audio Coding 3
Расширение режима : CM (complete main)
Параметр Endianness формата : Big
Идентификатор кодека : A_AC3
Продолжительность : 1 ч. 25 м.
Вид битрейта : Постоянный
Битрейт : 192 Кбит/сек
Каналы : 2 канала
Расположение каналов : Front: L R
Частота : 48,0 КГц
Битовая глубина : 16 бит
Метод сжатия : С потерями
Размер потока : 118 Мбайт (2%)
Заголовок : Русский пд (нтв+)ТВ
Язык : Russian
Default : Да
Forced : Нет
Аудио #2
Идентификатор : 3
Формат : DTS
Формат/Информация : Digital Theater Systems
Режим : 16
Параметр Endianness формата : Big
Идентификатор кодека : A_DTS
Продолжительность : 1 ч. 25 м.
Вид битрейта : Постоянный
Битрейт : 1509 Кбит/сек
Каналы : 6 каналов
Расположение каналов : Front: L C R, Side: L R, LFE
Частота : 48,0 КГц
Битовая глубина : 16 бит
Метод сжатия : С потерями
Размер потока : 926 Мбайт (14%)
Язык : English
Default : Нет
Forced : Нет
Меню
00:00:00.000 : en:00:00:00.000
00:09:59.974 : en:00:09:59.974
00:19:59.990 : en:00:19:59.990
00:29:59.964 : en:00:29:59.964
00:39:59.980 : en:00:39:59.980
00:49:59.997 : en:00:49:59.997
00:59:59.971 : en:00:59:59.971
01:09:59.987 : en:01:09:59.987
01:19:59.961 : en:01:19:59.961
cd Рип дополнительно залит на mail.ru cd2
[Profile] [PM]
Display posts:    
Reply to topic

Current time is: 26-May 22:51

All times are UTC + 3



You cannot post new topics in this forum
You cannot reply to topics in this forum
You cannot edit your posts in this forum
You cannot delete your posts in this forum
You cannot vote in polls in this forum
You cannot attach files in this forum
You cannot download files in this forum