Аванпост Земли / Outpost Earth (Бретт Пайпер / Brett Piper) [2019, США, Фантастика, WEB-DL-1080p] ЛД (Синема УС)

Reply to topic
DL-List and Torrent activity
Size:  12.5 GB   |    Registered:  7 years 4 months   |    Completed:  3 times

Seeder not seen: 1 hour 7 minutes

 
   
 
 
 
Author Message

admin ®

Gender: Male

Longevity: 8 years 10 months

Posts: 4793

Post 04-Feb-2014 00:45

[Quote]

Аванпост Земли / Outpost Earth
Страна: США, Polonia Brothers Entertainment
Жанр: Фантастика
Год выпуска: 2019
Продолжительность: 01:22:21
Перевод 1: Любительский (двухголосый) _ Синема УС
Режиссер: Бретт Пайпер / Brett Piper
В ролях:
Erin Waterhouse as Kay
Titus Himmelberger as Blake
Kristen Gylling as Penny
Mason Carver as Prof. Eisenberg
Yolie Canales as Kagen
Steve Diasparra as Creature
James Carolus as Thug
Jeff Kirkendall as Thug
Adam Murtland as Alien
Описание: Чудовищные инопланетные существа захватили Землю и уничтожили большую часть человеческой цивилизации. Теперь небольшая группа бойцов-отступников должна победить захватчиков ради будущего всего человечества.
Качество видео: WEB-DL-1080p
Формат: MKV
Видео: x264, 9510 кбит/с, 1920x1080, 23.976 к/с
Аудио 1: Русский ЛД (AC3, 2 ch, 224 Кбит/с)
Аудио 2: Английский (AC3, 2 ch, 224 Кбит/с)
Субтитры : английские
Работа над релизом:
Видеоряд найден в сети.
Удаление рекламы и синхр. русской дорожки - kosmoaelita



Пример русского перевода
[vkontakte][/vkontakte]

Дополнительно

Знаете ли вы, что...

Отзывы

Рецензия

MediaInfo

Общее
Уникальный идентификатор : 218195287333678973548077202451129837441 (0xA426E23E189874379450EB47C9922781)
Полное имя : N:\BD-DISC\Outpost Earth 2019.x264.WEB-DL.1080p.Rus.kosmoaelita.mkv
Формат : Matroska
Версия формата : Version 4
Размер файла : 5,84 Гбайт
Продолжительность : 1 ч. 22 м.
Общий поток : 10,2 Мбит/сек
Название фильма : Outpost Earth / Аванпост Земли / 2019 / kosmoaelita
Дата кодирования : UTC 2021-07-01 18:02:57
Программа кодирования : mkvmerge v6.6.0 ('The Edge Of The In Between') built on Dec 1 2013 17:55:00
Библиотека кодирования : libebml v1.3.0 + libmatroska v1.4.1
Attachments : Poster.jpg
Видео
Идентификатор : 1
Формат : AVC
Формат/Информация : Advanced Video Codec
Профиль формата : High@L4
Настройки формата : CABAC / 4 Ref Frames
Параметр CABAC формата : Да
Параметр RefFrames формата : 4 кадра
Идентификатор кодека : V_MPEG4/ISO/AVC
Продолжительность : 1 ч. 22 м.
Вид битрейта : Постоянный
Битрейт : 9510 Кбит/сек
Номинальный битрейт : 10000 Кбит/сек
Ширина : 1920 пикселей
Высота : 1080 пикселей
Соотношение сторон : 16:9
Режим частоты кадров : Постоянный
Частота кадров : 24,000 кадра/сек
Цветовое пространство : YUV
Субдискретизация насыщенности : 4:2:0
Битовая глубина : 8 бит
Тип развёртки : Прогрессивная
Бит/(Пиксели*Кадры) : 0.191
Размер потока : 5,47 Гбайт (94%)
Заголовок : kosmoaelita
Default : Да
Forced : Нет
Цветовой диапазон : Limited
Основные цвета : BT.709
Характеристики трансфера : BT.709
Коэффициенты матрицы : BT.709
Аудио #1
Идентификатор : 2
Формат : AC-3
Формат/Информация : Audio Coding 3
Коммерческое название : Dolby Digital
Идентификатор кодека : A_AC3
Продолжительность : 1 ч. 22 м.
Вид битрейта : Постоянный
Битрейт : 224 Кбит/сек
Каналы : 2 канала
ChannelLayout : L R
Частота : 48,0 КГц
Частота кадров : 31,250 кадров/сек (1536 SPF)
Метод сжатия : С потерями
Размер потока : 132 Мбайт (2%)
Заголовок : Русский ЛД (Синема УС)
Язык : Russian
ServiceKind/String : Complete Main
Default : Да
Forced : Нет
Аудио #2
Идентификатор : 3
Формат : AC-3
Формат/Информация : Audio Coding 3
Коммерческое название : Dolby Digital
Идентификатор кодека : A_AC3
Продолжительность : 1 ч. 22 м.
Вид битрейта : Постоянный
Битрейт : 224 Кбит/сек
Каналы : 2 канала
ChannelLayout : L R
Частота : 48,0 КГц
Частота кадров : 31,250 кадров/сек (1536 SPF)
Метод сжатия : С потерями
Размер потока : 132 Мбайт (2%)
Язык : English
ServiceKind/String : Complete Main
Default : Нет
Forced : Нет
Текст
Идентификатор : 4
Формат : UTF-8
Идентификатор кодека : S_TEXT/UTF8
Идентификатор кодека/Информация : UTF-8 Plain Text
Язык : English
Default : Нет
Forced : Нет

Скриншоты














Скринлист

Файл дополнительно залит на ОБЛАКО
VIY.1080p.CMEGRoup.mkv.torrent
Torrent: Registered [ 2014-03-17 16:38 ]

Download .torrent

Download

63 KB

Status: checked
Completed: 3 times
Size: 12.5 GB
 


Last edited by admin on 2014-03-17 16:38; edited 8 times in total
[Profile] [PM]

$Shorox

Gender: Male

Longevity: 8 years 7 months

Posts: 1879

Post 02-Sep-2014 18:19 (after 6 months 27 days)

[Quote]

sygsky,
Как-то тему решил сделать для себя, составить такой список:
Римейки и фильмы по мотивам других фильмов
Часть этого списка:
Мост / Die Brucke (Бернхард Викки (Bernhard Wicki)) [1959]
Мост / Die Brucke (Вольфган Панцер / Wolfgang Panzer) [2008]
*
На Ярком Солнце / Plein Soleil (Рене Клеман / Rene Clement) [1960]
Талантливый мистер Рипли / The Talented mr. Ripley (Энтони Мингелла / Anthony Minghella) [1999]
*
Психо / Психоз / Psycho (Альфред Хичкок / Альфред Хичкок) [1960]
Психоз / Психо / Psycho (Гас Ван Сент / Gus Van Sant) [1998]
*
Двенадцать разгневанных мужчин / Twelve Angry Men (Сидни Люмет) [1957]
12 разгневанных мужчин / 12 Angry Men (Уильям Фридкин / William Friedkin) [1997]
12 / Двенадцать (Никита Михалков) [2007]
*
Фантастическое путешествие / Fantastic Voyage [1966]
Внутреннее пространство / Innerspace (Джо Данте / Joe Dante) [1987]
*
Последний человек на Земле / The Last Man on Earth (Убальдо Рагона / Ubaldo Ragona, Сидней Салкоу / Sidney Salkow) [1964]
Человек Омега / The Omega Man (Борис Сагал / Boris Sagal) [1971]
Я - легенда / I Am Legend (Френсис Лоуренс / Francis Lawrence) [2007]
*
Второе дыхание / Le Deuxieme souffle (Жан-Пьер Мельвиль) [1966]
Второе дыхание / Le Deuxieme Souffle (Ален Корно / Alain Corneau) [2007]
*
Нечто / Нечто из другого мира / The Thing From Another World (Кристиан Нуби / Christian Nyby, Ховард Хоукс / Howard Hawks) [1951]
Нечто / The Thing (Джон Карпентер/ John Carpenter) [1982]
Нечто / The Thing (Маттис ван Хейниген мл. / Matthijs van Heijningen Jr) [2011]
*
Мыс страха / Cape Fear (Дж. Ли Томпсон / J. Lee Thompson) [1962]
Мыс страха / Cape Fear (Мартин Скорсезе / Martin Scorsese) [1991]
[Profile] [PM]

Трамвай-фильм

Gender: Male

Longevity: 6 years 11 months

Posts: 1896

Location: Россия

Post 02-Sep-2014 22:17 (after 3 hours)

[Quote]

Пара римейков, имеющих сколько-нибудь самостоятельную ценность, это: "Правдивая ложь" и "Великолепная семёрка". Но оригиналам и они комплексно уступают. А единственный пример тотального превосходства ремейка, это "Отпетые мошенники" против "Истории на ночь", в оригинале лишь Марлон Брандо был на высоте, создав даже более реалистичную (и мерзкую) фигуру своего героя, чем Стив Мартин в римейке.
Всё это, конечно, личное моё мнение.
Думаю слово "римейк" тут не совсем подходит. Типа книга в основе.
Это как экранизация 12 стульев, например
[Profile] [PM]

Трамвай-фильм

Gender: Male

Longevity: 6 years 11 months

Posts: 1896

Location: Россия

Post 29-Mar-2015 12:42 (after 6 months 26 days)

[Quote]

Клиника / Clinic (Александр Бубнов) [1993] - немного от "Вия" Гоголя есть в сюжете.
единственный ужас тут - это графика и сюжет.
[Profile] [PM]
Display posts:    
Reply to topic

Current time is: 27-Jul 06:27

All times are UTC + 3



You cannot post new topics in this forum
You cannot reply to topics in this forum
You cannot edit your posts in this forum
You cannot delete your posts in this forum
You cannot vote in polls in this forum
You cannot attach files in this forum
You can download files in this forum