Киборг–охотник / Cyber Tracker (Ричард Пепин / Richard Pepin) [1994 г., фантастика, боевик, DVDRip] ПМ (ТВ3), АО (Дохалов), АО (Ю.Сербин)

Reply to topic
 
Author Message

admin ®

Gender: Male

Longevity: 8 years 1 month

Posts: 4795

Post 03-Feb-2014 22:40

[Quote]

Киборг–охотник / Cyber Tracker
Год выпуска: 1994
Страна: США, Япония, PM Entertainment Group
Жанр: фантастика, боевик
Продолжительность: 01:30:59
Перевод: ПМ (ТВ3), АО (Дохалов), АО (Ю.Сербин)
Режиссер: Ричард Пепин / Richard Pepin
В ролях:
Don 'The Dragon' Wilson ... Eric
Richard Norton ... Ross
Stacie Foster ... Connie
Joseph Ruskin ... Rounds
John Aprea ... Senator Dilly
Abby Dalton ... Chief Olson
Steve Burton ... Jared
David Barnathan ... Marcus
Edward Blanchard ... Gil
Lisa Larosa ... Ally
Christina Zilber ... Kate (as Christina Naify)
Duchess Dale ... Becca
G. William Keith ... Moderator
Peter Kluge ... Reporter
Dana Sparks ... Stephanie
Описание: Эрик - секретный агент, охраняющий сенатора Дилли, вовлеченного в программу по созданию нового вида полицейских офицеров: идеального, неуязвимого Киборга-охотника. Узнав, что сенатор связан коррупцией, из его личного охранника Эрик превращается в объект охоты не только начальника охраны, но и непобедимого андроида...
Качество: DVDRip
Формат: MKV
Видео: x264, 1897 кбит/с, 720x548, 23.976 к/с, crf=18
Аудио 1: Русский ПМ (ТВ3) (AC3, 2 ch, 192 Кбит/с)
Аудио 1: Русский АО (В.Дохалов) (AC3, 2 ch, 192 Кбит/с)
Аудио 1: Русский АО (Ю.Сербин) (AC3, 2 ch, 192 Кбит/с)
Аудио 2: Английский (AC3, 2 ch, 192 Кбит/с)
Работа над релизом:
Рип с ДВД5 и синзрон русских дорожек - sasha20072007 (kosmoaelita)
За оцифровку звуковой дорожки с переводом Юрия Сербина благодарим Fred198.
ОТДЕЛЬНАЯ БЛАГОДАРНОСТЬ MacSim47 ЗА ЗАПИСЬ ЗВУКА С КАНАЛА ТВ3



Пример русской ПМ озвучки от ТВ3

Трейлер

Дополнительно

слоган «You have to be terminated, Now!»
рейтинг MPAA лицам до 17 лет обязательно присутствие взрослого
Also Known As (AKA)
(original title) Cyber Tracker
Germany (alternative spelling) Cyber Tracker 1
Spain Cybertracker (Cyborg ejecutor)
Greece (video title) Cyber: Oi batsoi tou mellontos
Hungary A menekülés
Japan (English title) Cyber Warrior
Portugal Cyber, o Executor
================================================
Для Украины: рип и оригинальный ДВД дополнительно залиты в файлохранилище
Рип дополнительно залит на mail.ru
Для удаления,добавления и извлечения дорожек в mkv используйте бесплатную портативную mkvmerge GUI 6.6.0
Для присоединения потом дорожек к avi воспользуйтесь VirtualDubMod

Отзывы

Спасибо за раздачу.... но фильм откровенно говоря полная х....я и ни как не сравнится с киборгом полицейским тот что с дэвидом брэдли..... тут тысячи пуль выпущенных в упор и так и не попавших в цель.... это всегда меня раздражало в фильмах хочется режиссера ударить лопатой за такую постановку
-----------------------------------------
помню, в детстве жутко пёрся от этой серии, там ещё вторая часть есть!
спасибо раздающему, аж прослезился от умиления...
-----------------------------------------

Рецензия

Кибер шторм
О сюжете фильма сказать практически нечего — его как такого не существует — как и положено быть фильмам категории «В». Зато есть море дешевого шквального огня, море драк, перестрелок, погонь, хаоса и беспредела, творимого бесчинствующими ордами киборгов.
Главный киборг в сим эпическом полотне — конечно же Дон Дракон Уилсон, с самых первых ролей зарекомендовавший себя актером малобюджетного трэшевого кино, с уклоном в восточные единоборства. Махать ногами и говорить пару тройку ничего не значащих фраз — это был его судьбоносный удел в кинематографе — и похоже — он с ним справился на отлично, около полусотни сыгранных ролей и весьма внушительная продюсерская деятельность, тому подтверждение.
Тех счастливчиков, кто способен будет досмотреть таки сверхскоростной и сверхдинамичный кибертрэш и кибершторм до конца — ожидает весьма приятная неожиданность в лице Ричарда Нортона — обаятельного злодея — олицетворяющего собою абсолютное кибернетическое зло, противостоящее «добру с кулаками» практически во всех фильмах на подобную тематику.
Думаю, после просмотра мало окажется желающих посмотреть еще и вторую часть Киборга охотника — но если такие все же найдутся — их ждет еще более печальная участь, чем при просмотре первой.
Мой вердикт 8 из 10 за динамику и 2 из 10 за сюжет — итого
5 из 10

Лог кодирования

MediaInfo

Общее
Уникальный идентификатор : 186103875175412327278040233531648792847 (0x8C024D76F9E9C504B3F22966AAF4590F)
Полное имя : N:\Cyber Tracker 1994.x264.DVDRip.3xRus.NTSC.kosmoaelita.mkv
Формат : Matroska
Версия формата : Version 4 / Version 2
Размер файла : 1,70 Гбайт
Продолжительность : 1 ч. 30 м.
Общий поток : 2668 Кбит/сек
Название фильма : Киборг-охотник (Киборг-следопыт / Киборг-ищейка) / Cyber Tracker / 1994 DVD5 NTSC / rip from DVD5 by sasha20072007 (kosmoaelita) (2014-02-02)
Дата кодирования : UTC 2014-02-03 20:18:16
Программа кодирования : mkvmerge v6.6.0 ('The Edge Of The In Between') built on Dec 7 2013 13:21:48
Библиотека кодирования : libebml v1.3.0 + libmatroska v1.4.1
Attachment : Yes
Видео
Идентификатор : 1
Формат : AVC
Формат/Информация : Advanced Video Codec
Профиль формата : High@L4.1
Параметр CABAC формата : Да
Параметр ReFrames формата : 10 кадров
Идентификатор кодека : V_MPEG4/ISO/AVC
Продолжительность : 1 ч. 30 м.
Битрейт : 1897 Кбит/сек
Ширина : 720 пикселей
Высота : 548 пикселей
Соотношение сторон : 4:3
Режим частоты кадров : Постоянный
Частота кадров : 23,976 кадра/сек
Цветовое пространство : YUV
Субдискретизация насыщенности : 4:2:0
Битовая глубина : 8 бит
Тип развёртки : Прогрессивная
Бит/(Пиксели*Кадры) : 0.201
Размер потока : 1,17 Гбайт (69%)
Библиотека кодирования : x264 core 130 r2273 b3065e6
Настройки программы : cabac=1 / ref=10 / deblock=1:-1:-1 / analyse=0x3:0x133 / me=umh / subme=11 / psy=1 / psy_rd=0.98:0.14 / mixed_ref=1 / me_range=24 / chroma_me=1 / trellis=2 / 8x8dct=1 / cqm=0 / deadzone=21,11 / fast_pskip=1 / chroma_qp_offset=-3 / threads=6 / lookahead_threads=1 / sliced_threads=0 / nr=0 / decimate=1 / interlaced=0 / bluray_compat=0 / constrained_intra=0 / bframes=10 / b_pyramid=2 / b_adapt=2 / b_bias=0 / direct=3 / weightb=1 / open_gop=0 / weightp=2 / keyint=220 / keyint_min=22 / scenecut=40 / intra_refresh=0 / rc_lookahead=60 / rc=2pass / mbtree=1 / bitrate=1897 / ratetol=1.0 / qcomp=0.63 / qpmin=0 / qpmax=69 / qpstep=4 / cplxblur=20.0 / qblur=0.5 / ip_ratio=1.25 / aq=1:0.90
Default : Да
Forced : Нет
Основные цвета : BT.601 PAL
Характеристики трансфера : BT.470 System B, BT.470 System G
Коэффициенты матрицы : BT.601
Аудио #1
Идентификатор : 2
Формат : AC-3
Формат/Информация : Audio Coding 3
Расширение режима : CM (complete main)
Параметр Endianness формата : Big
Идентификатор кодека : A_AC3
Продолжительность : 1 ч. 30 м.
Вид битрейта : Постоянный
Битрейт : 192 Кбит/сек
Каналы : 2 канала
Расположение каналов : Front: L R
Частота : 48,0 КГц
Битовая глубина : 16 бит
Метод сжатия : С потерями
Размер потока : 125 Мбайт (7%)
Заголовок : Русский ПМ (ТВ3)
Язык : Russian
Default : Да
Forced : Нет
Аудио #2
Идентификатор : 3
Формат : AC-3
Формат/Информация : Audio Coding 3
Профиль формата : Dolby Digital
Расширение режима : CM (complete main)
Параметр Endianness формата : Big
Идентификатор кодека : A_AC3
Продолжительность : 1 ч. 30 м.
Вид битрейта : Постоянный
Битрейт : 192 Кбит/сек
Каналы : 2 канала
Расположение каналов : Front: L R
Частота : 48,0 КГц
Битовая глубина : 16 бит
Метод сжатия : С потерями
Размер потока : 125 Мбайт (7%)
Заголовок : Русский АО (В.Дохалов)
Язык : Russian
Default : Нет
Forced : Нет
Аудио #3
Идентификатор : 4
Формат : AC-3
Формат/Информация : Audio Coding 3
Расширение режима : CM (complete main)
Параметр Endianness формата : Big
Идентификатор кодека : A_AC3
Продолжительность : 1 ч. 30 м.
Вид битрейта : Постоянный
Битрейт : 192 Кбит/сек
Каналы : 2 канала
Расположение каналов : Front: L R
Частота : 48,0 КГц
Битовая глубина : 16 бит
Метод сжатия : С потерями
Размер потока : 125 Мбайт (7%)
Заголовок : Русский АО (Ю.Сербин)
Язык : Russian
Default : Нет
Forced : Нет
Аудио #4
Идентификатор : 5
Формат : AC-3
Формат/Информация : Audio Coding 3
Расширение режима : CM (complete main)
Параметр Endianness формата : Big
Идентификатор кодека : A_AC3
Продолжительность : 1 ч. 30 м.
Вид битрейта : Постоянный
Битрейт : 192 Кбит/сек
Каналы : 2 канала
Расположение каналов : Front: L R
Частота : 48,0 КГц
Битовая глубина : 16 бит
Метод сжатия : С потерями
Размер потока : 125 Мбайт (7%)
Язык : English
Default : Нет
Forced : Нет
Меню
00:05:43.677 : en:00:05:43.677
00:15:28.127 : en:00:15:28.127
00:23:45.090 : en:00:23:45.090
00:30:54.386 : en:00:30:54.386
00:39:40.011 : en:00:39:40.011
00:46:40.531 : en:00:46:40.531
00:56:55.546 : en:00:56:55.546
01:04:57.494 : en:01:04:57.494
01:12:41.190 : en:01:12:41.190
01:22:28.777 : en:01:22:28.777
01:28:25.867 : en:01:28:25.867
01:30:58.520 : en:01:30:58.520
01:30:59.287 : en:01:30:59.287

Скриншоты
















cd Рип дополнительно залит на mail.ru cd2
[Profile] [PM]
Display posts:    
Reply to topic

Current time is: 29-Oct 10:06

All times are UTC + 3



You cannot post new topics in this forum
You cannot reply to topics in this forum
You cannot edit your posts in this forum
You cannot delete your posts in this forum
You cannot vote in polls in this forum
You cannot attach files in this forum
You cannot download files in this forum