Зета Один / Любовный фактор / Zeta One / The Love Factor (Майкл Корт / Michael Cort) [1969 г., фантастика, фэнтези, комедия, эротика, BDRip-720p] ЛО (den904), СТ (kosmoaelita, Severnyj)

Ответить на тему
 
Автор Сообщение

admin ®

Пол: Мужской

Стаж: 5 лет 2 месяца

Сообщений: 4748

Откуда: Україна

Создавать темы 19-Янв-2014 19:10

[Цитировать]

Зета Один / Любовный фактор / Zeta One / The Love Factor
Год выпуска: 1969
Страна: Великобритания, Tigon
Жанр: фантастика, фэнтези, комедия, эротика
Продолжительность: 01:25:55
Перевод 1: ЛО (den904)
Перевод 2: Субтитры Severnyj
Режиссер: Майкл Корт / Michael Cort
В ролях:
James Robertson Justice ... Maj. Bourdon
Charles Hawtrey ... Swyne
Robin Hawdon ... James Word
Anna Gaël ... Clotho
Brigitte Skay ... Lachesis
Dawn Addams ... Zeta
Valerie Leon ... Atropos
Lionel Murton ... W
Yutte Stensgaard ... Ann Olsen
Angela Grant ... Angvisa Girl (as Angie Grant)
Wendy Lingham ... Edwina 'Ted' Strain
Rita Webb ... Clippie
Carol Hawkins ... Zara (as Carolanne Hawkins)
Steve Kirby ... Sleuth
Paul Baker ... Bourdon's Assistant
Описание: После игры в покер на раздевание светловолосая секс-агент Энн Олсен узнает, что специальный агент Джеймс Ворд разыскивает врага общества Номер 1 — майора Бордена. За майором Борденом также гоняется раса сексуальных суперженщин во главе с красивой Зетой, которые живут без мужчин. Оказывается, что все привлекательные женщины похищаются с Земли и в специальных отделах Дзеты им очищают мозги. План Бордена состоит в том, чтобы разыскать Зету и ее обольстительных сирен и стать их новым правителем.
Релиз

Качество: BDRip-720p
Формат: MKV
Видео: x264, 5590 кбит/с, 1202x720, 23.976 к/с
Аудио 1: Русский ЛО (den904) ) (AC3, 1 ch, 384 Кбит/с)
Аудио 2: Английский (DTS, 1 ch, 768 Кбит/с)
Субтитры : Русские (Severnyj)
Работа над релизом:
Релиз - kosmoaelita
Рип найден в юзенете.
Перевод на слух с английского по заказу kosmoaelita - Severnyj
Русская озвучка по заказу kosmoaelita.com - Den904



Трейлер

Пример русских озвучки и субтитров

Дополнительно

слоган «It's Sexcitement in Time and Space»
возраст зрителям, достигшим 18 лет
Also Known As (AKA)
(original title) Zeta One
Alien Women
Finland Zeta - naarastiikeri
Italy Zeta uno
USA The Love Factor
================================================
Для Украины: рип дополнительно залит в файлохранилище
Для удаления,добавления и извлечения дорожек в mkv используйте бесплатную портативную mkvmerge GUI 6.6.0
Для присоединения потом дорожек к avi воспользуйтесь VirtualDubMod

MediaInfo

Общее
Уникальный идентификатор : 240141298154663908723229179110054767073 (0xB4A9881D7DE6257C81A9A2A31AAD29E1)
Полное имя : N:\Zeta One The Love Factor 1969.x264.BDRip.720p.kosmoaelita.mkv
Формат : Matroska
Версия формата : Version 4 / Version 2
Размер файла : 3,89 Гбайт
Продолжительность : 1 ч. 25 м.
Общий поток : 6487 Кбит/сек
Название фильма : Zeta One / The Love Factor / 1969 / Релиз kosmoaelita
Дата кодирования : UTC 2014-01-19 16:23:31
Программа кодирования : mkvmerge v6.6.0 ('The Edge Of The In Between') built on Dec 7 2013 13:21:48
Библиотека кодирования : libebml v1.3.0 + libmatroska v1.4.1
Attachment : Yes
Видео
Идентификатор : 1
Формат : AVC
Формат/Информация : Advanced Video Codec
Профиль формата : High@L4.1
Параметр CABAC формата : Да
Параметр ReFrames формата : 5 кадров
Идентификатор кодека : V_MPEG4/ISO/AVC
Продолжительность : 1 ч. 25 м.
Битрейт : 5590 Кбит/сек
Ширина : 1202 пикселя
Высота : 720 пикселей
Соотношение сторон : 1,669
Режим частоты кадров : Постоянный
Частота кадров : 23,976 кадра/сек
Цветовое пространство : YUV
Субдискретизация насыщенности : 4:2:0
Битовая глубина : 8 бит
Тип развёртки : Прогрессивная
Бит/(Пиксели*Кадры) : 0.269
Размер потока : 3,35 Гбайт (86%)
Заголовок : Релиз www.kosmoaelita.com
Язык : English
Default : Да
Forced : Нет
Аудио
Идентификатор : 2
Формат : DTS
Формат/Информация : Digital Theater Systems
Режим : 16
Параметр Endianness формата : Big
Идентификатор кодека : A_DTS
Продолжительность : 1 ч. 25 м.
Вид битрейта : Постоянный
Битрейт : 768 Кбит/сек
Каналы : 1 канал
Расположение каналов : Front: C
Частота : 48,0 КГц
Битовая глубина : 24 бит
Метод сжатия : С потерями
Размер потока : 472 Мбайт (12%)
Заголовок : Engl DTS 1.0 768
Язык : English
Default : Да
Forced : Нет
Текст #1
Идентификатор : 3
Формат : VobSub
Режим смешивания : zlib
Идентификатор кодека : S_VOBSUB
Идентификатор кодека/Информация : The same subtitle format used on DVDs
Заголовок : Русский (kosmoaelita,Severnyj) VobSub
Язык : Russian
Default : Да
Forced : Нет
Текст #2
Идентификатор : 4
Формат : UTF-8
Идентификатор кодека : S_TEXT/UTF8
Идентификатор кодека/Информация : UTF-8 Plain Text
Заголовок : Русский (kosmoaelita,Severnyj) srt
Язык : Russian
Default : Нет
Forced : Нет
Меню
00:00:00.000 : en:00:00:00.000
00:06:55.290 : en:00:06:55.290
00:12:31.334 : en:00:12:31.334
00:21:00.468 : en:00:21:00.468
00:31:29.763 : en:00:31:29.763
00:40:25.256 : en:00:40:25.256
00:51:19.243 : en:00:51:19.243
01:01:55.045 : en:01:01:55.045
01:06:57.096 : en:01:06:57.096
01:17:44.994 : en:01:17:44.994

Пример субтитров

1
00:00:05,897 --> 00:00:10,000
Релиз
www. kosmoaelita. com
2
00:00:22,454 --> 00:00:27,054
"Зета один"
или "Любовный фактор"
3
00:00:27,089 --> 00:00:31,655
(Zeta One
aka The Love Factor, 1969г)
4
00:00:31,865 --> 00:00:36,958
Зета всегда отзывается на просьбы
о помощи.
5
00:00:37,086 --> 00:00:42,878
Если вы позовёте её,
для Зеты это важнее всего.
6
00:00:43,511 --> 00:00:49,225
Прелестные девушки, пришедшие
из другого мира.
7
00:00:49,306 --> 00:00:55,609
Так что не нужно колебаний,
посылайте за Зетой!
8
00:00:55,853 --> 00:01:01,334
Она совсем рядом, но в то же время
очень далеко.
9
00:01:01,491 --> 00:01:07,852
Если вы, конечно, не наберёте
"Зета, Зета, Зета"!
10
00:01:07,946 --> 00:01:12,671
З-е-т-а, Зета.
11
00:02:26,279 --> 00:02:31,792
Она совсем рядом, но в то же время
очень далеко.
----------------------------
725
01:21:21,759 --> 01:21:23,996
Знаешь, мне кажется, ему понравится.
726
01:21:34,471 --> 01:21:36,330
Петух сгорел.
727
01:21:39,769 --> 01:21:41,169
Кому он нужен?
728
01:22:12,277 --> 01:22:15,777
<Зал осеменения. Не входить,
когда горит красный свет>
729
01:22:20,669 --> 01:22:22,669
- Вискоза 250?
- Да.
730
01:24:20,669 --> 01:24:28,669
Перевод на слух с англ. Severnyj
Ред. sasha20072007
январь, 2014 года

Скриншоты






















Последний раз редактировалось: admin (2014-01-20 01:03), всего редактировалось 7 раз(а)
[Профиль] [ЛС]

Гость

Пол: Не указан

Создавать темы 28-Янв-2014 23:58 (спустя 9 дней)

[Цитировать]

Добавлена русская озвучка от den904
 

Гость

Пол: Не указан

Создавать темы 29-Янв-2014 08:13 (спустя 8 часов)

[Цитировать]

Тогда и вот этот фильм посмотрите:
http://rutracker.org/forum/viewtopic.php?t=1868079
ab
 
Быстрый ответ

Имя:

            
Для отправки сообщений необходимо включить JavaScript
Показать сообщения:    
Ответить на тему

Текущее время: 24-Ноя 16:41

Часовой пояс: UTC + 3:30



Вы не можете начинать темы
Вы можете отвечать на сообщения
Вы не можете редактировать свои сообщения
Вы не можете удалять свои сообщения
Вы не можете голосовать в опросах
Вы не можете прикреплять файлы к сообщениям
Вы не можете скачивать файлы