Жри и беги / Eat and Run (Кристофер Харт / Christopher Hart) [1986 г., фантастика, комедия,, DVDRip] АО (Алексеев)

Reply to topic
 
Author Message

admin ®

Gender: Male

Longevity: 6 years 11 months

Posts: 4725

Location: Україна

Post 17-Jan-2014 03:35

[Quote]

Жри и беги / Eat and Run
Год выпуска: 1987
Страна: США, BFD
Жанр: фантастика, комедия,
Продолжительность: 01:20:23
Перевод: Авторский одноголосый Алексеев
Режиссер: Кристофер Харт / Christopher Hart
В ролях:
Ron Silver ... Mickey McSorely
Sharon Sharth ... Judge Cheryl Cohen (as Sharon Schlarth)
Pat Ryan ... Murray Creature (as R. L. Ryan)
John J. Fleming ... The Police Captain
Derek Murcott ... Sorely McSorely
Robert Silver ... Pusher
Mimi Cecchini ... Grandmother
Tony Moundroukas ... Zepoli Kid
Frank Nastasi ... Pick-up Driver
Peter Waldren ... Dinkleman
Gabriel Barre ... Mime
Ruth Jaroslow ... Crossing Guard
George Peter Ryan ... Narcotics Cop
Lou Criscuolo ... Italian Ices Vendor
Tom Mardirosian ... Scarpetti
Описание: Пришелец-гуманоид прибывает на Землю и вскоре обнаруживает, что ему жуть как нравятся итальянцы…. в качестве еды. Умерить аппетиты пришельца может только бестолковый детектив МакСорли, жаль только, что кроме него в теорию инопланетного итальяноедства никто не верит. Тогда тот принимается за расследование в одиночку, пока пришелец наводит шороху среди итальянской мафии.
Качество: DVDRip
Формат: MKV
Видео: xviD, 2313 кбит/с, 720x544, 25 к/с
Аудио 1: Русский (AC3, 2 ch, 224 Кбит/с)
Аудио 2: Английский (AC3, 2 ch, 224 Кбит/с)
Работа над релизом:
Рип найден на синемагеддоне.
Синхрон русской дорожки - sasha20072007 (kosmoaelita)



Дополнительно

слоган «A comedy with taste»
Also Known As (AKA)
(original title) Eat and Run
Brazil O Comilão de Outro Mundo
Poland Kto zezarl, ten zwiewa
West Germany Big Harry
================================================
Для Украины: рип дополнительно залит в файлохранилище
Для удаления,добавления и извлечения дорожек в mkv используйте бесплатную портативную mkvmerge GUI 6.6.0
Для присоединения потом дорожек к avi воспользуйтесь VirtualDubMod

MediaInfo

Общее
Уникальный идентификатор : 199440918111871136027957471707044244500 (0x960AEC73328BCC48928E510BA067EC14)
Полное имя : N:\Eat and Run 1987.XviD.DVDRip.Rus.kosmoaelita.mkv
Формат : Matroska
Версия формата : Version 4 / Version 2
Размер файла : 1,58 Гбайт
Продолжительность : 1 ч. 20 м.
Общий поток : 2817 Кбит/сек
Название фильма : Жри и беги / Eat and Run / 1986 / kosmoaelita
Дата кодирования : UTC 2014-01-17 00:18:19
Программа кодирования : mkvmerge v6.6.0 ('The Edge Of The In Between') built on Dec 7 2013 13:21:48
Библиотека кодирования : libebml v1.3.0 + libmatroska v1.4.1
Видео
Идентификатор : 1
Формат : MPEG-4 Visual
Профиль формата : Advanced Simple@L5
Параметр BVOP формата : Да
Параметр QPel формата : Нет
Параметр GMC формата : Без точки перехода
Параметр матрицы формата : Выборочная
Идентификатор кодека : V_MS/VFW/FOURCC / XVID
Идентификатор кодека/Подсказка : XviD
Продолжительность : 1 ч. 20 м.
Битрейт : 2313 Кбит/сек
Ширина : 720 пикселей
Высота : 544 пикселя
Соотношение сторон : 4:3
Режим частоты кадров : Постоянный
Частота кадров : 25,000 кадров/сек
Цветовое пространство : YUV
Субдискретизация насыщенности : 4:2:0
Битовая глубина : 8 бит
Тип развёртки : Прогрессивная
Метод сжатия : С потерями
Бит/(Пиксели*Кадры) : 0.236
Размер потока : 1,30 Гбайт (82%)
Библиотека кодирования : XviD 1.2.1 (UTC 2008-12-04)
Default : Да
Forced : Нет
Аудио #1
Идентификатор : 2
Формат : AC-3
Формат/Информация : Audio Coding 3
Расширение режима : CM (complete main)
Параметр Endianness формата : Big
Идентификатор кодека : A_AC3
Продолжительность : 1 ч. 20 м.
Вид битрейта : Постоянный
Битрейт : 224 Кбит/сек
Каналы : 2 канала
Расположение каналов : Front: L R
Частота : 48,0 КГц
Битовая глубина : 16 бит
Метод сжатия : С потерями
Размер потока : 129 Мбайт (8%)
Заголовок : Русский АО (Алексеев)
Язык : Russian
Default : Да
Forced : Нет
Аудио #2
Идентификатор : 3
Формат : AC-3
Формат/Информация : Audio Coding 3
Расширение режима : CM (complete main)
Параметр Endianness формата : Big
Идентификатор кодека : A_AC3
Продолжительность : 1 ч. 20 м.
Вид битрейта : Постоянный
Битрейт : 224 Кбит/сек
Каналы : 2 канала
Расположение каналов : Front: L R
Частота : 48,0 КГц
Битовая глубина : 16 бит
Метод сжатия : С потерями
Размер потока : 129 Мбайт (8%)
Язык : English
Default : Нет
Forced : Нет

Скриншоты

















Last edited by admin on 2014-11-30 07:35; edited 1 time in total
[Profile] [PM]
Display posts:    
Reply to topic

Current time is: 20-Aug 11:00

All times are UTC + 3



You cannot post new topics in this forum
You cannot reply to topics in this forum
You cannot edit your posts in this forum
You cannot delete your posts in this forum
You cannot vote in polls in this forum
You cannot attach files in this forum
You cannot download files in this forum