Мегафорс / Мегасилы / Megaforce (Хэл Нидэм / Hal Needham) [1982 г., фантастика, боевик, BDRip-AVC] АО (Котов), АО (Горчаков), ЛО (Диколон Делон)

Reply to topic
DL-List and Torrent activity
Size:  1.96 GB   |    Registered:  4 years 6 months   |    Completed:  0 times

Seeder not seen: 3 years 1 month

 
   
 
 
 
Author Message

admin ®

Gender: Male

Longevity: 8 years

Posts: 4794

Post 16-Jan-2014 21:52

[Quote]

Мегафорс / Мегасилы / Megaforce
Год выпуска: 1982
Страна: США, Гонконг, Golden Harvest Company Ltd.
Жанр: Фантастический комикс, боевик
Продолжительность: 01:35:36
Перевод 1: Авторский одноголосый (Горчаков)
Перевод 2: ЛО (Диколон Делон)
Режиссер: Хэл Нидэм / Hal Needham
В ролях:
Barry Bostwick ... Cmdr. Ace Hunter
Michael Beck ... Dallas
Persis Khambatta ... Major Zara
Edward Mulhare ... Gen. Edward Byrne-White
George Furth ... Prof. Eggstrum
Henry Silva ... Duke Guerera
Mike Kulcsar ... Ivan (as Michael Kulcsar)
Ralph Wilcox ... Zachary Taylor
Evan C. Kim ... Suki (as Evan Kim)
Anthony Pena ... Sixkiller (as Anthony Penya)
J. Víctor López ... Lopez
Michael Carven ... Anton
Bobby Bass ... Motorcycle Driver
Samir Kamoun ... Aide
Youssef Merhi ... Radio Operator
Описание: Ультасовременный боевой отряд во главе с Эйс Хантером борется с диктаторским режимом. Танки, пушки, змеи, мотоциклы, прекрасная патриотка — все смешано в одну кучу с неоправданным пафосом.
Качество: BDRip-AVC
Формат: MKV
Видео: x264, 1850 кбит/с, 1024x576, 23,976 к/с, crf=18
Аудио 1: Русский АО (Котов) (AC3, 2 ch, 192 Кбит/с)
Аудио 2: Русский ЛО (Диколон Делон) (AC3, 2 ch, 192 Кбит/с)
Аудио 3: Русский АО (Горчаков) (AC3, 2 ch, 192 Кбит/с)
Аудио 4: Английский (AC3, 6 ch, 384 Кбит/с)
Работа над релизом:
Рип с ДВД5 СсинемагеддонА - sasha20072007 (kosmoaelita).
Русская дорожка Горчакова приобретена для kosmoaelita.com
Синхронизация дорожки Д.Делона - kosmoaelita
DVDRip vs. BDRip



Трейлер

Дополнительно

Also Known As (AKA)
(original title) Megaforce
Argentina Megaforce
Brazil O Esquadrão do Terror
Finland Megaforce
Finland Megaforce - aavikkosoturit
Greece (transliterated ISO-LATIN-1 title) Komandos exontoseos
Netherlands (informal literal title) Supertroepen
Philippines (English title) Mega Force
Portugal Megaforce
слоган «When the force was with them, NO-ONE stood a chance!»
бюджет $20 000 000

Рецензия

Американские критики почему-то «мега-яростно» обрушились на вполне смотрибельную ленту об оснащённом супертехникой отряде «Мегасилы» под предводительством Эйса Хантера (то есть Аса-Охотника), который борется с группой наёмников во главе с полковником Герерой (в этой испанской фамилии тоже есть намёк на воинственность персонажа), чтобы отстоять свободу и справедливость в некой маленькой стране в недалёком будущем. Изощрённое остроумие рецензентов («рот открываешь не в изумлении от похождений героев, а лишь для зевоты», «это хуже, чем мегафарс», «мега-индюшка», «кино - как скверная жевательная резинка») было вызвано провалом фильма в прокате. От очередной работы Хэла Нидэма, бывшего каскадёра, постановщика эффектных сцен, в том числе в собственных картинах, популярных комедиях-боевиках (две серии «Полицейского и бандита», две части «Гонок «Пушечное ядро», а также «Хупер»), никто не ожидал такого скромного коммерческого результата (бюджет же составил $20 млн.). Может, по сравнению с его «мегахитами» данная лента и покажется вовсе неудачной. Однако в качестве футуристического комикса с погонями на потрясающих бронемашинах и перестрелками из лазерного оружия - это фильм, пригодный для мега-расслабленного времяпрепровождения.
=======================================================
Прилетит вдруг вояка в расписном мотоцикле…
Знаете, если бы в начальных титрах была бы надпись «основано на таком-то комиксе», то я бы всё понял и простил. В начале 80-ых комиксы только начинали выползать на большой экран, и если были действительно эпичные ленты вроде «Супермена», то существовали и ярко-красочно-примитивные вроде «Флэша Гордона» или экранизаций Филипиннских комиксов про «Дарну». И «Мегасилы» можно было бы отнести ко второй категории, ан нет — в основе ленты оригинальный сценарий, в производство вложены деньги небезызвестной Golden Harvest, а режиссёр — известный Хэл Нидэм.
Нидэм начинал как каскадёр, затем переквалифицировался в режиссёры. Он бодро начал, сняв картины с Бертом Рейнольдсом «Смоки и Бандит» и «Хупер». Затем, выпустив ещё пару фильмов, Нидэм стал катиться по наклонной, сняв несколько фильмов один другого хуже и отхватив четыре номинации на Золотую малину. Это привело к тому, что покумекав несколько лет на телевидении Хэл оставил режиссёрскую профессию.
Первой ласточкой были как раз-таки «Мегасилы» — насквозь кретиничная лента, которую можно было бы принять за армейскую агитку, не будь она так неправдоподобна. Речь здесь идёт о карикатурном злом генерале, который хочет всё захватить. Ему противостоит секретный отряд во главе с Эйс Хантером, супер-мега воякой. Всё это выльется в кучу неоправданно громких, отчаянно неправдоподобных и неимоверно пафосных потасовок.
Этот самый суперсовременный отряд ездит на расписных мотоциклах с ракетными установками и не менее расписных бронемашинах, которые видно за километр и которые смотрелись бы на своём месте, только если бы участвовали в каком-нибудь каскадёрском шоу. Ихний предводитель — Эйс Хантер — улыбчив, бородат и носит на голове, хм, голубую повязку (выкуси, Рэмбо!). Иногда ему помогает патриотичная и прекрасная Персис Кхамбатта, которая здесь куда привлекательней, чем в «Ночных ястребах» со Сталлоне.
Ещё тут есть чудаковатый генерал в исполнении Эдварда Малхейра, который, по сути, играет своего же Девона Майлса из «Рыцаря дорог». Остальные же сплошь переигрывают — причём настолько жутко, что лопаются глаза. Сценарий — отдельное нечто, экшн-сцены возникают из ниоткуда и оправданы… почти никак. Выглядит экшн, кстати, сносно, много взрывов, но зачастую он весьма неправдободобен и идиотичен, к тому же довольно сумбурен. Плюс ко всему прочему есть совершенно жутчайшая сцена, из-за которой я снизил целый балл. Это когда в финале Эйс Хантер догоняет свой самолёт на… летающем мотоцикле. Мало того, что эта сцена чудовищна просто так (хотя, казалось бы, чего только в голливудском кино не летало), да ещё и мерзкий монтаж угробил этот момент окончательно.
Итог таков — фильм может и ярок, но при этом безмозгл (ну и словечко…), чересчур патриотичен (что касается и музыки, единственный здесь хороший трек — это когда Хантер и героиня Кхамбатты летели на парашютах) и просто глуп. Провал в прокате абсолютно неудивителен, к тому же вполне закономерен — представьте что было, если бы вышел сиквел…
3 из 10

MediaInfo

Общее
Уникальный идентификатор : 199861637653040469820855960785606839267 (0x965BF3865DED46B89C588531DF328BE3)
Полное имя : N:\Megaforce.1982.x264.BDRip.AVC.3xRus.kosmoaelita.mkv
Формат : Matroska
Версия формата : Version 4 / Version 2
Размер файла : 1,96 Гбайт
Продолжительность : 1 ч. 39 м.
Общий поток : 2833 Кбит/сек
Название фильма : Megaforce (1982) kosmoaelita
Дата кодирования : UTC 2016-03-05 12:16:46
Программа кодирования : mkvmerge v6.6.0 ('The Edge Of The In Between') built on Dec 1 2013 17:55:00
Библиотека кодирования : libebml v1.3.0 + libmatroska v1.4.1
Обложка : Yes
Attachments : Megaforce.1982.x264.BDRip.AVC..3xRus.kosmoaelita.mkv.encoding.log / poster Megaforce-789041--o--.jpg / Cover.jpg
Видео
Идентификатор : 1
Формат : AVC
Формат/Информация : Advanced Video Codec
Профиль формата : High@L4.1
Параметр CABAC формата : Да
Параметр ReFrames формата : 9 кадров
Идентификатор кодека : V_MPEG4/ISO/AVC
Продолжительность : 1 ч. 39 м.
Битрейт : 1870 Кбит/сек
Ширина : 1024 пикселя
Высота : 576 пикселей
Соотношение сторон : 16:9
Режим частоты кадров : Постоянный
Частота кадров : 23,976 (24000/1001) кадра/сек
Цветовое пространство : YUV
Субдискретизация насыщенности : 4:2:0
Битовая глубина : 8 бит
Тип развёртки : Прогрессивная
Бит/(Пиксели*Кадры) : 0.132
Размер потока : 1,26 Гбайт (64%)
Заголовок : kosmoaelita
Библиотека кодирования : x264 core 130 r2273 b3065e6
Настройки программы : cabac=1 / ref=9 / deblock=1:-1:-1 / analyse=0x3:0x133 / me=umh / subme=11 / psy=1 / psy_rd=0.99:0.14 / mixed_ref=1 / me_range=24 / chroma_me=1 / trellis=2 / 8x8dct=1 / cqm=0 / deadzone=21,11 / fast_pskip=1 / chroma_qp_offset=-3 / threads=6 / lookahead_threads=1 / sliced_threads=0 / nr=0 / decimate=1 / interlaced=0 / bluray_compat=0 / constrained_intra=0 / bframes=9 / b_pyramid=2 / b_adapt=2 / b_bias=0 / direct=3 / weightb=1 / open_gop=0 / weightp=2 / keyint=210 / keyint_min=21 / scenecut=40 / intra_refresh=0 / rc_lookahead=80 / rc=2pass / mbtree=1 / bitrate=1870 / ratetol=1.0 / qcomp=0.65 / qpmin=0 / qpmax=69 / qpstep=4 / cplxblur=20.0 / qblur=0.5 / ip_ratio=1.25 / aq=1:0.90
Default : Да
Forced : Нет
Цветовой диапазон : Limited
Основные цвета : BT.709
Характеристики трансфера : BT.709
Коэффициенты матрицы : BT.709
Statistics Tags Issue : mkvmerge v7.8.0 ('River Man') 32bit built on Mar 27 2015 16:18:02 2016-03-05 07:21:34 / mkvmerge v6.6.0 ('The Edge Of The In Between') built on Dec 1 2013 17:55:00 2016-03-05 12:16:46
FromStats_BitRate : 1870011
FromStats_Duration : 01:39:03.354000000
FromStats_FrameCount : 142498
FromStats_StreamSize : 1389267749
Аудио #1
Идентификатор : 2
Формат : AC-3
Формат/Информация : Audio Coding 3
Расширение режима : CM (complete main)
Параметр Endianness формата : Big
Идентификатор кодека : A_AC3
Продолжительность : 1 ч. 39 м.
Вид битрейта : Постоянный
Битрейт : 192 Кбит/сек
Каналы : 2 канала
Расположение каналов : Front: L R
Частота : 48,0 КГц
Частота кадров : 31,250 кадров/сек (1536 spf)
Метод сжатия : С потерями
Размер потока : 136 Мбайт (7%)
Заголовок : Русский АО (В.Котов)
Язык : Russian
Default : Да
Forced : Нет
Statistics Tags Issue : mkvmerge v7.8.0 ('River Man') 32bit built on Mar 27 2015 16:18:02 2016-03-05 07:21:34 / mkvmerge v6.6.0 ('The Edge Of The In Between') built on Dec 1 2013 17:55:00 2016-03-05 12:16:46
FromStats_BitRate : 192000
FromStats_Duration : 01:39:03.328000000
FromStats_FrameCount : 185729
FromStats_StreamSize : 142639872
Аудио #2
Идентификатор : 3
Формат : AC-3
Формат/Информация : Audio Coding 3
Расширение режима : CM (complete main)
Параметр Endianness формата : Big
Идентификатор кодека : A_AC3
Продолжительность : 1 ч. 39 м.
Вид битрейта : Постоянный
Битрейт : 192 Кбит/сек
Каналы : 2 канала
Расположение каналов : Front: L R
Частота : 48,0 КГц
Частота кадров : 31,250 кадров/сек (1536 spf)
Метод сжатия : С потерями
Размер потока : 136 Мбайт (7%)
Заголовок : Русский ЛО (Диколон Делон)
Язык : Russian
Default : Нет
Forced : Нет
Аудио #3
Идентификатор : 4
Формат : AC-3
Формат/Информация : Audio Coding 3
Расширение режима : CM (complete main)
Параметр Endianness формата : Big
Идентификатор кодека : A_AC3
Продолжительность : 1 ч. 39 м.
Вид битрейта : Постоянный
Битрейт : 192 Кбит/сек
Каналы : 2 канала
Расположение каналов : Front: L R
Частота : 48,0 КГц
Частота кадров : 31,250 кадров/сек (1536 spf)
Метод сжатия : С потерями
Размер потока : 136 Мбайт (7%)
Заголовок : Русский АО (В.Горчаков)
Язык : Russian
Default : Нет
Forced : Нет
Аудио #4
Идентификатор : 5
Формат : AC-3
Формат/Информация : Audio Coding 3
Расширение режима : CM (complete main)
Параметр Endianness формата : Big
Идентификатор кодека : A_AC3
Продолжительность : 1 ч. 39 м.
Вид битрейта : Постоянный
Битрейт : 384 Кбит/сек
Каналы : 6 каналов
Расположение каналов : Front: L C R, Side: L R, LFE
Частота : 48,0 КГц
Частота кадров : 31,250 кадров/сек (1536 spf)
Метод сжатия : С потерями
Размер потока : 272 Мбайт (14%)
Язык : English
Default : Нет
Forced : Нет
Текст
Идентификатор : 6
Формат : UTF-8
Идентификатор кодека : S_TEXT/UTF8
Идентификатор кодека/Информация : UTF-8 Plain Text
Заголовок : fors
Default : Да
Forced : Нет

Скриншоты









Скринлист

cd Рип дополнительно залит на mail.ru cd2
Megaforce.1982.x264.BDRip.AVC.3xRus.kosmoaelita.mkv.torrent
Torrent: Registered [ 2016-03-05 15:41 ]

Download .torrent

Download

79 KB

Status: checked
Completed: 0 times
Size: 1.96 GB
 


Last edited by admin on 2016-03-06 02:09; edited 9 times in total
[Profile] [PM]

bot

Post 04-Feb-2014 17:39 (after 18 days)

Топик был перенесен из форума Релизы из прошлого в форум 1980-1989 г. Начало упадка, последние шедевры
admin
 

Guest

Gender: Unknown

Post 19-Feb-2014 13:40 (after 1 month 2 days)

[Quote]

http://cinemageddon.net/details.php?id=66255 ДВД5)
 

admin ®

Gender: Male

Longevity: 8 years

Posts: 4794

Post 05-Mar-2016 15:42 (after 2 years)

[Quote]

Замена на BDRip
DVDRip vs. BDRip

[Profile] [PM]
Display posts:    
Reply to topic

Current time is: 01-Oct 01:38

All times are UTC + 3



You cannot post new topics in this forum
You cannot reply to topics in this forum
You cannot edit your posts in this forum
You cannot delete your posts in this forum
You cannot vote in polls in this forum
You cannot attach files in this forum
You can download files in this forum