Поколение Икс / Generation X (Джек Шолдер / Jack Sholder) [1996, США, фантастика, боевик, приключения, DVDRip] AVO Карцев + original eng

Reply to topic
 
Author Message

admin ®

Gender: Male

Longevity: 7 years 2 months

Posts: 4723

Post 08-Sep-2012 13:43

[Quote]

Поколение Икс / Generation X
Страна: США
Жанр: фантастика, боевик, приключения
Год выпуска: 1996
Продолжительность: 01:27:20
Перевод: Авторский (одноголосый закадровый Карцев
Cубтитры: нет
Оригинальная аудиодорожка: английский
Режиссер: Джек Шолдер / Jack Sholder
В ролях: Мэтт Фрюэр, Финола Хьюз, Джереми Рэчфорд, Хизер МакКомб, Агустин Родригес, Рэндолл Славин, Бампер Робинсон, Сюзанн Дэвис, Amarilis, Кевин МакНалти и др.
Описание: Неопределенное будущее. Среди людей появились мутанты, обладающие сверхъестественными возможностями, но таковые лишаются гражданских прав и свободы. Несколько подростков очутились в специальной школе, где двое взрослых мутантов, собрали их для того, чтобы научить бороться за жизнь в этом суровом мире. Полусумасшедший ученый по прозвищу Трэш, автор научного проекта по изучению проблемы сновидений, вступает в борьбу со своими коллегами из этой школы…
Качество: DVDRip(AVC)
Видео: x264, 1873 Кбит/с, 720x544
Аудио 1: Русский (AC3, 2 ch, 192 Кбит/с)
Аудио 2: Английский (AC3, 2 ch, 192 Кбит/с)b]


Релиз

Найдено в сети.
Рип и вся работа со звуком - sasha20072007
Русская дорожка с кассеты была "убита" совершенно.Поэтому все русские фразы были вырезаны и наложены на ориг. дорожку.Получилось то, что получилось.
Авторская озвучка - Карцев
Сравнение с VHS рипом в сети
Для Украины: рип и оригин. ДВД дополнительно залит в файлохранилище
Для удаления и добавления дорожек в mkv используйте бесплатную mkvmerge GUI 5.80

Рецензия

Сколько бы нам не говорили о равенстве всех людей в мире, о наших правах и свободах, но с каждым годом нас все больше в этой самой свободе ограничивают. Нам навязывают идеи и цели государства и отдельных лиц, контролируют практически каждый шаг. Скоро, наверное, единственными местами, где мы будем чувствовать себя свободными, останутся лишь наши сны и разум. И то не факт, что знающие и стремящиеся люди не найдут способа проникнуть и в эти закрытые области. Итак, «Поколение Икс».Данная картина также основана на комиксах Marvel, рассказывающая альтернативную, точнее даже сказать побочную историю о небольшой группе мутантов, по сути тех же Людей Икс, только во главе их стоит Эмма Фрост (она же и управляет Церебро). Цели и задачи по сути у нее те же самые — поиск мутантов, предоставление им убежища, а также помощь в акклиматизации, изучении и освоении своих способностей и применение их во благо окружающих. Из знакомых лиц (лично для меня), помимо Эммы Фрост, здесь только Джубили, да сумасшедший ученый Трас Треш (кстати сказать, очень уж напоминающий мне Кристофера Ллойда).По сути своей, это первая экранизация комиксов о Людях Икс сразу вслед за мультсериалом «Люди Икс» 1992 года. И манера повествования здесь совсем другая, нежели чем во всех последующих картинах. По большей части это все-таки развлекательное кино, выполненное в жанре научной фантастики. Идея проникновения в чужие сны с целью навязывания идеи о принятии того или иного решения (в данном случае покупки того или иного товара), сформированная Траском постепенно полностью поглощает его, доходя до того, что его главной целью становится получение ДНК мутанта, чтобы потом, привив ее себе, получить возможность проникать в чужие сны не при помощи машины, а своих собственных возможностей. В целом фильм напоминает смесь таких картин, как «Видение» (1984), «Кошмар на улице Вязов» и вышедшего гораздо позже «Начала» (2010). Да и сами мутанты, по сути, отошли здесь на второй план. Сцены с применением ими своих способностей здесь можно пересчитать по пальцам. В первую очередь это научно-фантастический фильм с применением разнообразных хитрых механизмов, длинных и непонятных формул и труднопроизносимых терминов. Но при всем при этом история не лишена комедийного оттенка, благодаря которому фильм не воспринимается с той серьезностью, которая, по идее здесь должна быть. В этом плане, «Поколение Икс», наверное, можно сравнить с «Назад в будущее». Если задуматься, это еще и сатира на современное общество. Реклама сейчас буквально везде. Производители готовы на все, дабы народ покупал только их продукцию. Была бы их воля — и в снах бы нам прививали тягу к покупкам. С другой стороны это и, так называемая, свобода. Нам говорят, что человек имеет право на свободу. А если посмотреть трезво? Законы, правила, кодексы, налоги и прочее — фактически, свобода ограничена лишь немногим. А если нужные люди научатся проникать еще и в сны, подсознание, разум — где же тут свобода? Есть, над чем задуматься.8 из 10

MediaInfo

Общее
Уникальный идентификатор : 232172065320191873576476701645575597122 (0xAEAAB699D929DE0DB3072CBB2800AC42)
Полное имя : F:\Pokolenie.Iks.1996.x264.DVDRip.sasha20072007.mkv
Формат : Matroska
Версия формата : Version 2
Размер файла : 1,40 Гбайт
Продолжительность : 1 ч. 27 м.
Общий поток : 2303 Кбит/сек
Название фильма : Поколение Икс / Generation X / 1996 / rip by sasha20072007
Дата кодирования : UTC 2012-06-13 19:36:03
Программа кодирования : mkvmerge v5.6.0 ('Kenya Kane') built on Jun 1 2012 21:45:42
Библиотека кодирования : libebml v1.2.3 + libmatroska v1.3.0
Attachment : Yes
Видео
Идентификатор : 1
Формат : AVC
Формат/Информация : Advanced Video Codec
Профиль формата : High@L4.1
Параметр CABAC формата : Да
Параметр ReFrames формата : 8 кадров
Идентификатор кодека : V_MPEG4/ISO/AVC
Продолжительность : 1 ч. 27 м.
Битрейт : 1873 Кбит/сек
Ширина : 720 пикселей
Высота : 544 пикселя
Соотношение сторон : 4:3
Частота кадров : 23,976 кадра/сек
Цветовое пространство : YUV
Субдискретизация насыщенности : 4:2:0
Битовая глубина : 8 бит
Тип развёртки : Прогрессивная
Бит/(Пиксели*Кадры) : 0.199
Размер потока : 1,14 Гбайт (81%)
Библиотека кодирования : x264 core 124 r2197 69a0443
Настройки программы : cabac=1 / ref=8 / deblock=1:-3:-3 / analyse=0x3:0x133 / me=umh / subme=9 / psy=1 / psy_rd=1.00:0.20 / mixed_ref=1 / me_range=24 / chroma_me=1 / trellis=2 / 8x8dct=1 / cqm=0 / deadzone=21,11 / fast_pskip=1 / chroma_qp_offset=-3 / threads=6 / sliced_threads=0 / nr=0 / decimate=1 / interlaced=0 / bluray_compat=0 / constrained_intra=0 / bframes=8 / b_pyramid=2 / b_adapt=2 / b_bias=0 / direct=1 / weightb=1 / open_gop=0 / weightp=2 / keyint=220 / keyint_min=22 / scenecut=40 / intra_refresh=0 / rc=cqp / mbtree=0 / qp=20 / ip_ratio=1.25 / pb_ratio=1.20 / aq=0
Default : Да
Forced : Нет
Основные цвета : BT.470-6 System B, BT.470-6 System G, BT.601-6 625, BT.1358 625, BT.1700 625 PAL, BT.1700 625 SECAM
Характеристики трансфера : BT.470-6 System B, BT.470-6 System G
Коэффициенты матрицы : BT.470-6 System B, BT.470-6 System G, BT.601-6 625, BT.1358 625, BT.1700 625 PAL, BT.1700 625 SECAM, IEC 61966-2-4 601
Аудио #1
Идентификатор : 2
Формат : AC-3
Формат/Информация : Audio Coding 3
Расширение режима : CM (complete main)
Параметр Endianness формата : Big
Идентификатор кодека : A_AC3
Продолжительность : 1 ч. 27 м.
Вид битрейта : Постоянный
Битрейт : 192 Кбит/сек
Каналы : 2 канала
Расположение каналов : Front: L R
Частота : 48,0 КГц
Битовая глубина : 16 бит
Метод сжатия : С потерями
Размер потока : 120 Мбайт (8%)
Заголовок : Русский (АП - Карцев)
Язык : Russian
Default : Да
Forced : Да
Аудио #2
Идентификатор : 3
Формат : AC-3
Формат/Информация : Audio Coding 3
Расширение режима : CM (complete main)
Параметр Endianness формата : Big
Идентификатор кодека : A_AC3
Продолжительность : 1 ч. 27 м.
Вид битрейта : Постоянный
Битрейт : 192 Кбит/сек
Каналы : 2 канала
Расположение каналов : Front: L R
Частота : 48,0 КГц
Битовая глубина : 16 бит
Метод сжатия : С потерями
Размер потока : 120 Мбайт (8%)
Язык : English
Default : Нет
Forced : Нет
Меню
00:00:00.000 : :Chapter 01
00:04:50.000 : :Chapter 02
00:10:09.000 : :Chapter 03
00:14:59.000 : :Chapter 04
00:19:49.000 : :Chapter 05
00:25:08.000 : :Chapter 06
00:29:58.000 : :Chapter 07
00:34:48.000 : :Chapter 08
00:40:07.000 : :Chapter 09
00:44:57.000 : :Chapter 10
00:49:47.000 : :Chapter 11
00:55:06.000 : :Chapter 12
00:59:56.000 : :Chapter 13
01:04:46.000 : :Chapter 14
01:10:05.000 : :Chapter 15
01:14:55.000 : :Chapter 16
01:20:14.000 : :Chapter 17
01:25:04.000 : :Chapter 18

Скриншоты



cd Рип дополнительно залит на mail.ru cd2
[Profile] [PM]

Андрей

Gender: Unknown

Post 09-Dec-2012 17:49 (after 3 months 1 day)

[Quote]

Почему формат MKV , а не AVI. Я к чему это пишу. Просто AVI формат "воспринимает" практически любая аппаратура и это было бы удобнее для пользователей.Поэтому и скачавших ноль.
 

Ivanov

Gender: Unknown

Post 09-Dec-2012 19:17 (after 1 hour 28 minutes)

[Quote]

816...Поэтому и скачавших ноль.
Не поэтому.) Ну..., или в том числе.
 

admin ®

Gender: Male

Longevity: 7 years 2 months

Posts: 4723

Post 09-Dec-2012 19:34 (after 16 minutes)

[Quote]

По первому пункту:
Не нравится - не заходите сюда
Еще раз по второму пункту:
Современные телевизоры с флешки прекрасно воспроизводят даже самые тяжелые mkv.Плюс хороший рип в х264 (crf=18-19) отличить от оригинала ДВД практически невозможно.XviD с разумным битрейтом на это не способен.Плюс mkv контейнер очень удобен и увиверсален: может содержать кучу сабов, дорожек, постеров, музыки , книг и т.д.
P.S. Кинескопные телевизоры свое отжили (да и в магазинах их уже почти нет).Рано или поздно придется покупать ЖК или плазму смайлик+
[Profile] [PM]
Quick Reply

Name:

            
Heads necessary to send messages to enable JavaScript
Display posts:    
Reply to topic

Current time is: 12-Nov 08:18

All times are UTC + 3



You cannot post new topics in this forum
You can reply to topics in this forum
You cannot edit your posts in this forum
You cannot delete your posts in this forum
You cannot vote in polls in this forum
You cannot attach files in this forum
You cannot download files in this forum