Негуманоид / Бесчеловечный (ТВ) / Inhumanoid (Виктория Маспрэтт / Victoria Muspratt) [1996 г., ужасы, фантастика, триллер, TVRip] АО (С.Визгунов)

Reply to topic
DL-List and Torrent activity
Size:  814 MB   |    Registered:  6 years 2 months   |    Completed:  23 times

Seeder not seen: 11 months 16 days

 
   
 
 
 
Author Message

admin ®

Gender: Male

Longevity: 7 years 7 months

Posts: 4811

Post 08-Jan-2014 22:42

[Quote]

Негуманоид / Бесчеловечный (ТВ) / Inhumanoid
Год выпуска: 1996
Страна: США, Concorde-New Horizons
Жанр: ужасы, фантастика, триллер
Продолжительность: 01:26:44
Перевод: Авторский одноголосый С.Визгунов
Режиссер: Виктория Маспрэтт / Victoria Muspratt
В ролях:
Richard Grieco ... Adam
Lara Harris ... Katrina Carver
Corbin Bernsen ... Foster Carver
Edie McClurg ... Dr. Marianne Snow
Robin Gammell ... Dr. Milton
Brittany Ashton Holmes ... Amy Carver
Ilia Volok ... Dr. Claus Feldman
Renato Powell ... Nurse
Conrad Goode ... Group Leader
Grant Mathis ... Medic
Cole Nelson ... Strange Man
Jeff Dixon ... Wolf Man
Описание: Семья из трех человек путешествует в космосе. В пути они встречают заброшенный космический корабль. Они находят на его борту единственного выжившего, находящегося в шоковом состоянии. Однако, когда отец семейства отправляется обследовать корабль, он находит всю команду убитой. Неожиданно спасенный захватывает корабль своих спасителей и начинает их терроризировать. Оказывается, что он — эмоционально нестабильный андроид, запрограммированный на убийство…
Качество: TVRip
Формат: MKV
Видео: xvid, 966 кбит/с, 512х384, 23.976 к/с
Аудио 1: Русский АО (Визгунов) (AC3, 2 ch, 192 Кбит/с)
Аудио 2: Английский (MP3, 2 ch, 128 Кбит/с)
Работа над релизом:
Русская дорожка выкуплена специально для сайта kosmoaelita.com
Рип найден на синемагеддоне.
Синхрон русской дорожки - sasha20072007 (kosmoaelita)
Длинные звуковые фрагменты заменены более качественными с англ. дорожки



Пример русской озвучки

Дополнительно

Also Known As (AKA)
(original title) Inhumanoid
Australia Circuit Breaker
Germany Circuit Breaker
Germany Cyborg Fighter
Greece (video title) Ektos eleghou
Hungary Gyilkos android
Italy Circuito mortale
Japan (video title) Bijitâ supêsu
Japan (literal English title) Visitor Space
================================================
Для Украины: рип дополнительно залит в файлохранилище
Для удаления,добавления и извлечения дорожек в mkv используйте бесплатную портативную mkvmerge GUI 6.6.0
Для присоединения потом дорожек к avi воспользуйтесь VirtualDubMod

Знаете ли вы, что...

MediaInfo

Общее
Уникальный идентификатор : 206430841710869729547662554392519034975 (0x9B4D224A856A517F8EABE3D27FC4C85F)
Полное имя : N:\Inhumanoid 1996.XviD.TVRip.kosmoaelita.mkv
Формат : Matroska
Версия формата : Version 4 / Version 2
Размер файла : 814 Мбайт
Продолжительность : 1 ч. 26 м.
Общий поток : 1312 Кбит/сек
Название фильма : Негуманоид / Inhumanoid 1996 / kosmoaelita
Дата кодирования : UTC 2014-01-08 18:08:37
Программа кодирования : mkvmerge v6.6.0 ('The Edge Of The In Between') built on Dec 7 2013 13:21:48
Библиотека кодирования : libebml v1.3.0 + libmatroska v1.4.1
Видео
Идентификатор : 1
Формат : MPEG-4 Visual
Профиль формата : Advanced Simple@L5
Параметр BVOP формата : Да
Параметр QPel формата : Нет
Параметр GMC формата : Без точки перехода
Параметр матрицы формата : Default (MPEG)
Идентификатор кодека : V_MS/VFW/FOURCC / XVID
Идентификатор кодека/Подсказка : XviD
Продолжительность : 1 ч. 26 м.
Битрейт : 966 Кбит/сек
Ширина : 512 пикселей
Высота : 384 пикселя
Соотношение сторон : 4:3
Режим частоты кадров : Постоянный
Частота кадров : 23,976 кадра/сек
Цветовое пространство : YUV
Субдискретизация насыщенности : 4:2:0
Битовая глубина : 8 бит
Тип развёртки : Прогрессивная
Метод сжатия : С потерями
Бит/(Пиксели*Кадры) : 0.205
Размер потока : 599 Мбайт (74%)
Библиотека кодирования : XviD 1.2.0.dev47 (UTC 2006-11-01)
Default : Да
Forced : Нет
Аудио #1
Идентификатор : 2
Формат : AC-3
Формат/Информация : Audio Coding 3
Расширение режима : CM (complete main)
Параметр Endianness формата : Big
Идентификатор кодека : A_AC3
Продолжительность : 1 ч. 26 м.
Вид битрейта : Постоянный
Битрейт : 192 Кбит/сек
Каналы : 2 канала
Расположение каналов : Front: L R
Частота : 48,0 КГц
Битовая глубина : 16 бит
Метод сжатия : С потерями
Размер потока : 119 Мбайт (15%)
Заголовок : Русский АО (С.Визгунов)
Язык : Russian
Default : Да
Forced : Нет
Аудио #2
Идентификатор : 3
Формат : MPEG Audio
Версия формата : Version 1
Профиль формата : Layer 3
Режим : Joint stereo
Расширение режима : MS Stereo
Идентификатор кодека : A_MPEG/L3
Идентификатор кодека/Подсказка : MP3
Продолжительность : 1 ч. 26 м.
Вид битрейта : Постоянный
Битрейт : 128 Кбит/сек
Каналы : 2 канала
Частота : 48,0 КГц
Метод сжатия : С потерями
Размер потока : 79,4 Мбайт (10%)
Библиотека кодирования : LAME3.97
Настройки программы : -m j -V 4 -q 2 -lowpass 17 -b 128
Язык : English
Default : Нет
Forced : Нет

Скриншоты
















cd Рип дополнительно залит на mail.ru cd2
Inhumanoid 1996.XviD.TVRip.kosmoaelita.mkv.torrent
Torrent: Registered [ 2014-01-08 23:20 ]

Download .torrent

Download

32 KB

Status: checked
Completed: 23 times
Size: 814 MB
 
[Profile] [PM]
Display posts:    
Reply to topic

Current time is: 06-Apr 22:00

All times are UTC + 3



You cannot post new topics in this forum
You cannot reply to topics in this forum
You cannot edit your posts in this forum
You cannot delete your posts in this forum
You cannot vote in polls in this forum
You cannot attach files in this forum
You can download files in this forum