Искатель / Лягушачья Мечта / Frog Dreaming /The Quest (Брайан Тренчард-Смит / Brian Trenchard-Smith) [1986 г., фэнтези,, детектив, мистика, семейный,, VHSRip] АО (Кузнецов)

Reply to topic
 
Author Message

admin ®

Gender: Male

Longevity: 7 years 3 months

Posts: 4812

Post 02-Jan-2014 18:49

[Quote]

Искатель / Лягушачья Мечта / The Quest / Frog Dreaming
Год выпуска: 1986
Страна: Австралия, Middle Reef
Жанр: фэнтези, детектив, мистика, семейный,
Продолжительность: 01:33:04
Перевод: Авторский одноголосый С.Кузнецов
Режиссер: Брайан Тренчард-Смит / Brian Trenchard-Smith
В ролях:
Henry Thomas ... Cody
Tony Barry ... Gaza
Rachel Friend ... Wendy
Tamsin West ... Jane
Dempsey Knight ... Charlie Pride
John Ewart ... Ricketts
Chris Gregory ... Wheatley
Mark Knight ... Henry
Dennis Miller ... Mr. Cannon
Katy Manning ... Mrs. Cannon
Laurie Dobson ... Gleason
Jay Mannering ... Haggard
Tim Hughes ... Beilby
Howard Eynon ... Ranger
David Ravenswood ... Kauffman
Описание: Американский мальчик по имени Коуди, родители которого погибли, живет в Австралии со своим охранником, которого зовут Газа. Коди очень любопытен, изобретателен и обладает хорошим воображением. Однажды он обнаруживает, что в Национальном парке «Голова Дьявола» происходят странные события, которые ассоциируются с местными мифами о «лягушачьей мечте». Коуди начинает расследование ... ..
Качество: VHSRip
Формат: MKV
Видео: x264, 1877 кбит/с, 696x472, 23.976 к/с
Аудио 1: Русский АО (Кузнецов) (AC3, 2 ch, 192 Кбит/с)
Аудио 2: Английский (AC3, 2 ch, 192 Кбит/с)
Работа над релизом:
Рип найден на синемагеддона
Русская дорожка взята с VHS
Работа со звуком - sasha20072007 (kosmoaelita)



Пример русской озвучки

Дополнительно

слоган «Cody is an adventurer who is about to explore the depths of a legend»
Also Known As (AKA)
(original title) Frog Dreaming
Brazil The Quest
Brazil Uma Aventura E Tanto
Spain El secreto del lago
Finland Henkien taistelu
France Le secret du lac
UK (alternative spelling) The Go Kids
UK The Go-Kids
Italy Il mistero del lago scuro
Sweden (video title) The Spirit Chaser
USA The Quest
West Germany Der Geisterjäger
================================================
Для Украины: рип дополнительно залит в файлохранилище
Для удаления,добавления и извлечения дорожек в mkv используйте бесплатную портативную mkvmerge GUI 6.6.0
Для присоединения потом дорожек к avi воспользуйтесь VirtualDubMod

Знаете ли вы, что...

MediaInfo

Общее
Уникальный идентификатор : 188084382598951345112438055966099536389 (0x8D7FBC050A0297CEA0EBEF71537A7A05)
Полное имя : N:\Frog Dreaming aka The Quest 1986.x264.VHSRip.Rus.kosmoaelita.mkv
Формат : Matroska
Версия формата : Version 4 / Version 2
Размер файла : 1,50 Гбайт
Продолжительность : 1 ч. 33 м.
Общий поток : 2307 Кбит/сек
Название фильма : Искатель / The Quest / Frog Dreaming / 1986 / kosmoaelita.com
Дата кодирования : UTC 2014-01-02 17:18:52
Программа кодирования : mkvmerge v6.6.0 ('The Edge Of The In Between') built on Dec 7 2013 13:21:48
Библиотека кодирования : libebml v1.3.0 + libmatroska v1.4.1
Видео
Идентификатор : 1
Формат : AVC
Формат/Информация : Advanced Video Codec
Профиль формата : High@L3.0
Параметр CABAC формата : Да
Параметр ReFrames формата : 6 кадров
Идентификатор кодека : V_MPEG4/ISO/AVC
Битрейт : 1877 Кбит/сек
Ширина : 696 пикселей
Высота : 472 пикселя
Соотношение сторон : 4:3
Режим частоты кадров : Переменный
Цветовое пространство : YUV
Субдискретизация насыщенности : 4:2:0
Битовая глубина : 8 бит
Тип развёртки : Прогрессивная
Библиотека кодирования : x264 core 120
Настройки программы : cabac=1 / ref=6 / deblock=1:-2:-2 / analyse=0x3:0x133 / me=umh / subme=9 / psy=1 / psy_rd=1.00:0.00 / mixed_ref=1 / me_range=24 / chroma_me=1 / trellis=2 / 8x8dct=1 / cqm=0 / deadzone=21,11 / fast_pskip=0 / chroma_qp_offset=-2 / threads=1 / sliced_threads=0 / nr=0 / decimate=1 / interlaced=0 / bluray_compat=0 / constrained_intra=0 / bframes=6 / b_pyramid=2 / b_adapt=2 / b_bias=0 / direct=3 / weightb=1 / open_gop=0 / weightp=2 / keyint=300 / keyint_min=30 / scenecut=40 / intra_refresh=0 / rc_lookahead=50 / rc=crf / mbtree=1 / crf=19.3 / qcomp=0.60 / qpmin=3 / qpmax=69 / qpstep=4 / ip_ratio=1.40 / aq=1:1.20
Язык : English
Default : Да
Forced : Нет
Основные цвета : BT.601 NTSC
Характеристики трансфера : BT.709
Коэффициенты матрицы : BT.601
Аудио #1
Идентификатор : 2
Формат : AC-3
Формат/Информация : Audio Coding 3
Расширение режима : CM (complete main)
Параметр Endianness формата : Big
Идентификатор кодека : A_AC3
Продолжительность : 1 ч. 33 м.
Вид битрейта : Постоянный
Битрейт : 192 Кбит/сек
Каналы : 2 канала
Расположение каналов : Front: L R
Частота : 48,0 КГц
Битовая глубина : 16 бит
Метод сжатия : С потерями
Размер потока : 128 Мбайт (8%)
Заголовок : Русский АО (С.Кузнецов)
Язык : Russian
Default : Да
Forced : Нет
Аудио #2
Идентификатор : 3
Формат : AC-3
Формат/Информация : Audio Coding 3
Расширение режима : CM (complete main)
Параметр Endianness формата : Big
Идентификатор кодека : A_AC3
Продолжительность : 1 ч. 33 м.
Вид битрейта : Постоянный
Битрейт : 192 Кбит/сек
Каналы : 2 канала
Расположение каналов : Front: L R
Частота : 48,0 КГц
Битовая глубина : 16 бит
Метод сжатия : С потерями
Размер потока : 128 Мбайт (8%)
Язык : English
Default : Нет
Forced : Нет


Last edited by admin on 2014-01-03 11:48; edited 1 time in total
[Profile] [PM]

Guest

Gender: Unknown

Post 03-Jan-2014 10:08 (after 15 hours)

[Quote]

Предлагаю перевод описания фильма:
Американский мальчик по имени Коди, родители которого погибли, живет в Австралии со своим охранником, которого зовут Газа. Коди очень любопытен, изобретателен и обладает хорошим воображением. Однажды он обнаруживает, что в Национальном парке «Голова Дьявола» происходят странные события, которые ассоциируются с местными мифами о «лягушачьей мечте». Коди начинает расследование ...
 

Guest

Gender: Unknown

Post 11-Oct-2015 08:09 (after 1 year 9 months)

[Quote]

Микшер с переводом Алексеева https://cloud.mail.ru/public/Ljxi/ceaVA6skj
За сведение спасибо Xestand.
 
Quick Reply

Name:

            
Heads necessary to send messages to enable JavaScript
Display posts:    
Reply to topic

Current time is: 09-Dec 15:38

All times are UTC + 3



You cannot post new topics in this forum
You can reply to topics in this forum
You cannot edit your posts in this forum
You cannot delete your posts in this forum
You cannot vote in polls in this forum
You cannot attach files in this forum
You cannot download files in this forum