На Землю / Earthbound (Алан Бреннан / Alan Brennan) [2012 г., Фантастика, фэнтези, мелодрама, комедия, WEB-DLRip-720p] ПД (студия Elrom)

Reply to topic
 
Author Message

admin ®

Gender: Male

Longevity: 6 years 8 months

Posts: 4725

Location: Україна

Post 22-Dec-2013 01:33

[Quote]

На Землю / Earthbound
Год выпуска: 2012
Страна: Ирландия, Ripple World Pictures, Paper Dreams
Жанр: Фантастика, фэнтези, мелодрама, комедия
Продолжительность: 01:37:14
Перевод: Профессиональный (двухголосый) студия Elrom
Режиссер: Алан Бреннан / Alan Brennan
В ролях:
Rafe Spall ... Joe Norman
Jenn Murray ... Maria
Stephen Hogan ... Dr.Richard Webb
David Morrissey ... Bill Norman
Rory Keenan ... Gordon
Aoife Duffin ... Liz
Carrie Crowley ... Vera Ellis
John Lynn ... Phil
Milo Pilkington Massey ... Young Joe
Ned Dennehy ... Kilson
Peter Vollebregt ... Brett 'Rocky' Calhoun
Robert Bannon ... Jimmy
Jonathan Byrne ... Dave
Fionnuala O'Shea ... Nurse
Описание: Перед смертью отец одинадцатилетнего Джо открывает ему тайну, что Джо является последним сыном с далёкой планеты Залаксон, и здесь, на Земле они скрываются от охотников за головами, посланными за ним захватчиками планеты. Миссия Джо: остаться живым, вернуться на Залаксон и стать продолжателем рода залаксонцев
Качество: WEB-DLRip-720p
Формат: MKV
Видео: x264, 4000 кбит/с, 1280x720, 23.976 к/c - ScenRip
Аудио 1: Русский ПД (студия Elrom) (МР3, 2 ch, 128 Кбит/с)
Аудио 2: Английский (AC3, 6 ch, 384 Кбит/с)
Субтитры : Английские
Работа над релизом:
Рип найден в юзенете



Трейлер

Пример русской озвучки

Дополнительно

слоган «Is Joe really from outer space?...or is he just on another planet?»
возраст зрителям, достигшим 16 лет
Also Known As (AKA)
(original title) Earthbound
Poland (TV title) Czlowiek z kosmosu
Poland Ziemianin z kosmosu
===============================================
Для Украины: рип дополнительно залит в файлохранилище
Для удаления,добавления и извлечения дорожек в mkv используйте бесплатную портативную mkvmerge GUI 6.6.0
Для присоединения потом дорожек к avi воспользуйтесь VirtualDubMod

Отзывы

MediaInfo

General
Unique ID : 181304169768575525033439556723489020550 (0x8865E9B7BE646CB3B2EE2CBDDB369A86)
Complete name : N:\Earthbound.720.mkv
Format : Matroska
Format version : Version 4 / Version 2
File size : 3.11 GiB
Duration : 1h 37mn
Overall bit rate : 4 578 Kbps
Encoded date : UTC 2013-12-22 07:46:09
Writing application : mkvmerge v6.5.0 ('Isn't she lovely') built on Oct 20 2013 12:50:05
Writing library : libebml v1.3.0 + libmatroska v1.4.1
Video
ID : 1
Format : AVC
Format/Info : Advanced Video Codec
Format profile : High@L4.1
Format settings, CABAC : Yes
Format settings, ReFrames : 8 frames
Codec ID : V_MPEG4/ISO/AVC
Duration : 1h 37mn
Bit rate : 4 000 Kbps
Width : 1 280 pixels
Height : 720 pixels
Display aspect ratio : 16:9
Frame rate mode : Constant
Frame rate : 23.976 fps
Color space : YUV
Chroma subsampling : 4:2:0
Bit depth : 8 bits
Scan type : Progressive
Bits/(Pixel*Frame) : 0.181
Stream size : 2.66 GiB (85%)
Writing library : x264 core 130 r2273 b3065e6
Encoding settings : cabac=1 / ref=8 / deblock=1:-2:-1 / analyse=0x3:0x113 / me=umh / subme=7 / psy=1 / psy_rd=1.00:0.20 / mixed_ref=1 / me_range=16 / chroma_me=1 / trellis=2 / 8x8dct=1 / cqm=0 / deadzone=21,11 / fast_pskip=0 / chroma_qp_offset=-3 / threads=6 / lookahead_threads=1 / sliced_threads=0 / nr=0 / decimate=0 / interlaced=0 / bluray_compat=0 / constrained_intra=0 / bframes=6 / b_pyramid=2 / b_adapt=2 / b_bias=0 / direct=3 / weightb=1 / open_gop=0 / weightp=2 / keyint=240 / keyint_min=23 / scenecut=40 / intra_refresh=0 / rc_lookahead=40 / rc=2pass / mbtree=0 / bitrate=4000 / ratetol=1.0 / qcomp=0.60 / qpmin=0 / qpmax=69 / qpstep=4 / cplxblur=20.0 / qblur=0.5 / vbv_maxrate=50000 / vbv_bufsize=62500 / nal_hrd=none / ip_ratio=1.40 / pb_ratio=1.30 / aq=1:1.00
Language : English
Default : Yes
Forced : No
Audio #1
ID : 2
Format : AC-3
Format/Info : Audio Coding 3
Mode extension : CM (complete main)
Format settings, Endianness : Big
Codec ID : A_AC3
Duration : 1h 37mn
Bit rate mode : Constant
Bit rate : 192 Kbps
Channel(s) : 2 channels
Channel positions : Front: L R
Sampling rate : 48.0 KHz
Bit depth : 16 bits
Compression mode : Lossy
Stream size : 134 MiB (4%)
Language : Russian
Default : Yes
Forced : No
Audio #2
ID : 3
Format : AC-3
Format/Info : Audio Coding 3
Mode extension : CM (complete main)
Format settings, Endianness : Big
Codec ID : A_AC3
Duration : 1h 37mn
Bit rate mode : Constant
Bit rate : 384 Kbps
Channel(s) : 6 channels
Channel positions : Front: L C R, Side: L R, LFE
Sampling rate : 48.0 KHz
Bit depth : 16 bits
Compression mode : Lossy
Stream size : 267 MiB (8%)
Language : English
Default : No
Forced : No

Скриншоты








[Profile] [PM]

Guest

Gender: Unknown

Post 22-Dec-2013 16:34 (after 15 hours)

[Quote]

Торрент заменен на сетевой.
ScenRip
 
Quick Reply

Name:

            
Heads necessary to send messages to enable JavaScript
Display posts:    
Reply to topic

Current time is: 26-May 18:09

All times are UTC + 3



You cannot post new topics in this forum
You can reply to topics in this forum
You cannot edit your posts in this forum
You cannot delete your posts in this forum
You cannot vote in polls in this forum
You cannot attach files in this forum
You cannot download files in this forum