Ядерный репортер / Revenge of the Radioactive Reporter (Крэйг Прайс / Craig Pryce) [1990 г., фантастика, ужасы, комедия, VHSRip] АО (Вадим Назаров)

Reply to topic
 
Author Message

admin ®

Gender: Male

Longevity: 6 years 8 months

Posts: 4725

Location: Україна

Post 21-Dec-2013 16:12

[Quote]

Ядерный репортер / Revenge of the Radioactive Reporter
Год выпуска: 1990
Страна: Канада, Pryceless Productions
Жанр: фантастика, ужасы, комедия
Продолжительность: 01:20:24
Перевод: Авторский одноголосый Вадим Назаров
Режиссер: Крэйг Прайс / Craig Pryce
В ролях:
David Scammell ... Mike R. Wave
Kathryn Boese ... Richelle Darlington
Randy Pearlstein ... Joe Wave, Jr.
Derrick Strange ... Richard Swell
Erich Arenson ... Jack Lie
Mel Asbor ... Pirate
Larry Baker ... Iceman
Ron Becker ... Upside Down Vampire
Andre Biglo ... Elephant Man
Dace Broc ... No Entrance Woman
Larry Brown ... Transvestite
Eric Bryson ... Stunts
Malcolm Bryson ... Ambulance Driver
Joan Cammick ... Screaming Senior
Angelo Celeste ... Rob Burr
Описание: Вследствие радиоактивного заражения молодой газетный репортер превращается в жуткого, покрытого струпьями зомби...
Качество: VHSRip
Формат: MKV
Видео: x264, 1970 кбит/с, 720x540, 25 к/с, crf=18
Аудио 1: Русский АО (В.Назаров) (AC3, 2 ch, 192 Кбит/с)
Аудио 2: Английский (AC3, 2 ch, 192 Кбит/с)
Аудио 3: Немецкий (AC3, 2 ch, 192 Кбит/с)
Работа над релизом:
Рип с VHS-DVD c CG - sasha20072007 (kosmoaelita)
Русская звуковая дорожка выкуплена специально для kosmoaelita.com.



Пример русской озвучки

Дополнительно

слоган «A Nuclear Nightmare That Will Leave Your Skin Behind»
Also Known As (AKA) (original title) Revenge of the Radioactive Reporter
Brazil Radiação Assassina
Canada (French title) Journaliste radioactif
Germany Atomic Reporter
Spain La revancha del reportero radioactivo
Finland Radioaktiivinen reportteri
France Nuclear Mutant
===============================================
Для Украины: рип и оригинальный ДВД дополнительно залиты в файлохранилище
Для удаления,добавления и извлечения дорожек в mkv используйте бесплатную портативную mkvmerge GUI 6.6.0
Для присоединения потом дорожек к avi воспользуйтесь VirtualDubMod
Для присоединения потом дорожек к avi воспользуйтесь VirtualDubMod

Знаете ли вы, что...

В сцене в баре, шлюха одета в платье с открытой спиной. Но когда она обслуживает клиента в номере гостиницы, на ней надет черный лифчик. Вряд ли она могла бы носить платье с открытой спиной так, чтобы шлейки лифчика не были бы видны.

MediaInfo

Общее
Уникальный идентификатор : 253346854057324384003540110385038411836 (0xBE98D44A066016B397F07C8669E2C83C)
Полное имя : N:\Revenge of the Radioactive Reporter 1990.x264.VHSRip.kosmoaelita (1).mkv
Формат : Matroska
Версия формата : Version 4 / Version 2
Размер файла : 1,47 Гбайт
Продолжительность : 1 ч. 20 м.
Общий поток : 2613 Кбит/сек
Название фильма : Revenge of the Radioactive Reporter / 1990 / rip from VHS-DVD5 by sasha20072007 (kosmoaelita) (2013-12-21)
Дата кодирования : UTC 2013-12-21 12:40:49
Программа кодирования : mkvmerge v6.6.0 ('The Edge Of The In Between') built on Dec 1 2013 17:55:00
Библиотека кодирования : libebml v1.3.0 + libmatroska v1.4.1
Видео
Идентификатор : 1
Формат : AVC
Формат/Информация : Advanced Video Codec
Профиль формата : High@L4.1
Параметр CABAC формата : Да
Параметр ReFrames формата : 10 кадров
Идентификатор кодека : V_MPEG4/ISO/AVC
Продолжительность : 1 ч. 20 м.
Битрейт : 1970 Кбит/сек
Ширина : 720 пикселей
Высота : 540 пикселей
Соотношение сторон : 4:3
Режим частоты кадров : Постоянный
Частота кадров : 25,000 кадров/сек
Цветовое пространство : YUV
Субдискретизация насыщенности : 4:2:0
Битовая глубина : 8 бит
Тип развёртки : Прогрессивная
Бит/(Пиксели*Кадры) : 0.203
Размер потока : 1,08 Гбайт (74%)
Заголовок : Релиз www.kosmoaelita.com
Библиотека кодирования : x264 core 130 r2273 b3065e6
Настройки программы : cabac=1 / ref=10 / deblock=1:-2:-2 / analyse=0x3:0x133 / me=umh / subme=11 / psy=1 / psy_rd=0.98:0.14 / mixed_ref=1 / me_range=24 / chroma_me=1 / trellis=2 / 8x8dct=1 / cqm=0 / deadzone=21,11 / fast_pskip=1 / chroma_qp_offset=-3 / threads=6 / lookahead_threads=1 / sliced_threads=0 / nr=0 / decimate=1 / interlaced=0 / bluray_compat=0 / constrained_intra=0 / bframes=10 / b_pyramid=2 / b_adapt=2 / b_bias=0 / direct=3 / weightb=1 / open_gop=0 / weightp=2 / keyint=210 / keyint_min=21 / scenecut=40 / intra_refresh=0 / rc_lookahead=60 / rc=2pass / mbtree=1 / bitrate=1970 / ratetol=1.0 / qcomp=0.60 / qpmin=0 / qpmax=69 / qpstep=4 / cplxblur=20.0 / qblur=0.5 / ip_ratio=1.25 / aq=1:0.90
Default : Да
Forced : Нет
Основные цвета : BT.601 PAL
Характеристики трансфера : BT.470 System B, BT.470 System G
Коэффициенты матрицы : BT.601
Аудио #1
Идентификатор : 2
Формат : AC-3
Формат/Информация : Audio Coding 3
Расширение режима : CM (complete main)
Параметр Endianness формата : Big
Идентификатор кодека : A_AC3
Продолжительность : 1 ч. 20 м.
Вид битрейта : Постоянный
Битрейт : 192 Кбит/сек
Каналы : 2 канала
Расположение каналов : Front: L R
Частота : 48,0 КГц
Битовая глубина : 16 бит
Метод сжатия : С потерями
Размер потока : 110 Мбайт (7%)
Заголовок : Русский АО
Язык : Russian
Default : Да
Forced : Нет
Аудио #2
Идентификатор : 3
Формат : AC-3
Формат/Информация : Audio Coding 3
Расширение режима : CM (complete main)
Параметр Endianness формата : Big
Идентификатор кодека : A_AC3
Продолжительность : 1 ч. 20 м.
Вид битрейта : Постоянный
Битрейт : 256 Кбит/сек
Каналы : 2 канала
Расположение каналов : Front: L R
Частота : 48,0 КГц
Битовая глубина : 16 бит
Метод сжатия : С потерями
Размер потока : 147 Мбайт (10%)
Язык : English
Default : Нет
Forced : Нет
Аудио #3
Идентификатор : 4
Формат : AC-3
Формат/Информация : Audio Coding 3
Расширение режима : CM (complete main)
Параметр Endianness формата : Big
Идентификатор кодека : A_AC3
Продолжительность : 1 ч. 20 м.
Вид битрейта : Постоянный
Битрейт : 192 Кбит/сек
Каналы : 2 канала
Расположение каналов : Front: L R
Частота : 48,0 КГц
Битовая глубина : 16 бит
Метод сжатия : С потерями
Размер потока : 110 Мбайт (7%)
Язык : German
Default : Нет
Forced : Нет
Меню
00:09:20.560 : en:00:09:20.560
00:17:10.160 : en:00:17:10.160
00:25:46.560 : en:00:25:46.560
00:36:36.720 : en:00:36:36.720
00:42:04.720 : en:00:42:04.720
00:51:07.960 : en:00:51:07.960
00:58:41.680 : en:00:58:41.680
01:05:54.800 : en:01:05:54.800
01:13:48.160 : en:01:13:48.160
01:20:24.360 : en:01:20:24.360


Last edited by admin on 2013-12-23 22:49; edited 4 times in total
[Profile] [PM]

Guest

Gender: Unknown

Post 21-Dec-2013 19:59 (after 3 hours)

[Quote]

Что за авторский? Дольский?
 

$Shorox

Gender: Male

Longevity: 6 years 5 months

Posts: 1888

Post 21-Dec-2013 22:50 (after 2 hours 50 minutes)

[Quote]

buzerant1980,
Нет. Голос не могу определить. admin может знает?
[Profile] [PM]

admin ®

Gender: Male

Longevity: 6 years 8 months

Posts: 4725

Location: Україна

Post 21-Dec-2013 22:52 (after 2 minutes)

[Quote]

Тоже не знаю
[Profile] [PM]

Guest

Gender: Unknown

Post 22-Dec-2013 00:23 (after 1 hour 30 minutes)

[Quote]

4531Тоже не знаю
Вадим Назаров
 

k-center

Gender: Male

Longevity: 5 years 11 months

Posts: 181

Location: Украина

Post 23-Dec-2013 19:34 (after 1 day 19 hours)

[Quote]

Перевод описания:
Вследствие радиоактивного заражения молодой газетный репортер превращается в жуткого, покрытого струпьями зомби...
Перевод "Знаете ли вы, что..."
В сцене в баре, шлюха одета в платье с открытой спиной. Но когда она обслуживает клиента в номере гостиницы, на ней надет черный лифчик. Вряд ли она могла бы носить платье с открытой спиной так, чтобы шлейки лифчика не были бы видны.
[Profile] [PM]
Display posts:    
Reply to topic

Current time is: 26-May 22:27

All times are UTC + 3



You cannot post new topics in this forum
You cannot reply to topics in this forum
You cannot edit your posts in this forum
You cannot delete your posts in this forum
You cannot vote in polls in this forum
You cannot attach files in this forum
You cannot download files in this forum