Полуночный фильм Резня / Нападение с Марса / Midnight Movie Massacre / Атака From Mars (Лоуренс Джейкобс / Laurence Jacobs, Марк Сток / Mark Stock) [1988 г., ужасы, фантастика, комедия, DVDRip] АО (С. Кузнецов)

Reply to topic
 
Author Message

admin ®

Gender: Male

Longevity: 6 years 8 months

Posts: 4725

Location: Україна

Post 20-Dec-2013 00:57

[Quote]

Полуночный фильм Резня / Нападение с Марса / Midnight Movie Massacre / Атака From Mars
Год выпуска: 1988
Страна: США, Wade Williams Productions
Жанр: ужасы, фантастика, комедия
Продолжительность: 01:25:27
Перевод: Авторский одноголосый С. Кузнецов
Режиссер: Лоуренс Джейкобс / Laurence Jacobs, Марк Сток / Mark Stock
В ролях:
Robert Clarke ... Col Carlyle
Ann Robinson ... Dr. Sylvia Van Buren
David Staffer
Tom Hutsler
Margi Robbins ... (as Margie Robbins)
Mary Stevens
Duke Howze
Andrew Goodman
Lori Davis
Tamara Sue Hill
Susan Murphy
Brad Bittiker
Stuart Allen
Charity Case
Dwayne Clark
Описание: На крышу заштатного кинотеатра, крутившего научно-фантастическую ленты категории «Б», приземляется монстр марсианского происхождения и начинает пожирать зрителей и персонал.
Релиз

Качество: DVDRip
Формат: MKV
Видео: XviD, 1598 кбит/с, 720x544, 23.976 к/с
Аудио 1: Русский АО (Кузнецов) (AC3, 2 ch, 192 Кбит/с)
Аудио 2: Английский (AC3, 2 ch, 192 Кбит/с)
Работа над релизом:
Рип найден на синемагеддоне.
Русская звуковая дорожка выкуплена специально для kosmoaelita.com.



Пример русской озвучки

Дополнительно

Also Known As (AKA)
Brazil Aconteceu à Meia-Noite
France (video title) The Blob n°2 le retour du monstre
USA (video title) Attack from Mars
===============================================
Для Украины: рип дополнительно залит в файлохранилище
Для удаления,добавления и извлечения дорожек в mkv используйте бесплатную портативную mkvmerge GUI 6.6.0
Для присоединения потом дорожек к avi воспользуйтесь VirtualDubMod Для присоединения потом дорожек к avi воспользуйтесь VirtualDubMod

MediaInfo

Общее
Уникальный идентификатор : 195457835748384797108238785059812116498 (0x930BCF53DB2E01C5B193321002158812)
Полное имя : N:\Midnight Movie Massacre Attack From Mars 1988.XviD.DVDRip.kosmoaelita.mkv
Формат : Matroska
Версия формата : Version 4 / Version 2
Размер файла : 1,21 Гбайт
Продолжительность : 1 ч. 25 м.
Общий поток : 2022 Кбит/сек
Название фильма : Attack From Mars Midnight Movie Massacre (Резня в полночном кинотеатре) 1988
Дата кодирования : UTC 2013-12-19 21:46:17
Программа кодирования : mkvmerge v6.6.0 ('The Edge Of The In Between') built on Dec 1 2013 17:55:00
Библиотека кодирования : libebml v1.3.0 + libmatroska v1.4.1
Attachment : Yes
Видео
Идентификатор : 1
Формат : MPEG-4 Visual
Профиль формата : Advanced Simple@L5
Параметр BVOP формата : Да
Параметр QPel формата : Нет
Параметр GMC формата : Без точки перехода
Параметр матрицы формата : Выборочная
Идентификатор кодека : V_MS/VFW/FOURCC / XVID
Идентификатор кодека/Подсказка : XviD
Продолжительность : 1 ч. 25 м.
Битрейт : 1598 Кбит/сек
Ширина : 720 пикселей
Высота : 544 пикселя
Соотношение сторон : 4:3
Режим частоты кадров : Постоянный
Частота кадров : 23,976 кадра/сек
Цветовое пространство : YUV
Субдискретизация насыщенности : 4:2:0
Битовая глубина : 8 бит
Тип развёртки : Прогрессивная
Метод сжатия : С потерями
Бит/(Пиксели*Кадры) : 0.170
Размер потока : 976 Мбайт (79%)
Заголовок : Релиз www.kosmoaelita.com
Библиотека кодирования : XviD 1.1.2 (UTC 2006-11-01)
Default : Да
Forced : Нет
Аудио #1
Идентификатор : 2
Формат : AC-3
Формат/Информация : Audio Coding 3
Расширение режима : CM (complete main)
Параметр Endianness формата : Big
Идентификатор кодека : A_AC3
Продолжительность : 1 ч. 25 м.
Вид битрейта : Постоянный
Битрейт : 192 Кбит/сек
Каналы : 2 канала
Расположение каналов : Front: L R
Частота : 48,0 КГц
Битовая глубина : 16 бит
Метод сжатия : С потерями
Размер потока : 117 Мбайт (9%)
Заголовок : Русский АО (Кузнецов)
Язык : Russian
Default : Да
Forced : Да
Аудио #2
Идентификатор : 3
Формат : AC-3
Формат/Информация : Audio Coding 3
Расширение режима : CM (complete main)
Параметр Endianness формата : Big
Идентификатор кодека : A_AC3
Продолжительность : 1 ч. 25 м.
Вид битрейта : Постоянный
Битрейт : 192 Кбит/сек
Каналы : 1 канал
Расположение каналов : Front: C
Частота : 48,0 КГц
Битовая глубина : 16 бит
Метод сжатия : С потерями
Размер потока : 117 Мбайт (9%)
Язык : English
Default : Нет
Forced : Нет


Last edited by admin on 2015-03-26 01:12; edited 1 time in total
[Profile] [PM]

$Shorox

Gender: Male

Longevity: 6 years 5 months

Posts: 1888

Post 22-Dec-2013 16:54 (after 2 days 15 hours)

[Quote]

Заинтересовало такое, в фильме зрители в кинотеатре смотрят аннонсы:
Настоящих фильмов:
Cat-Women of the Moon (Женщины-кошки с Луны)
Space Patrol (Космический патруль)
Несуществующие фильмы:
Sweater girl from Mars (Красотки с Марса) - пародия на Devil Girl from Mars (Женщины дьволицы с Марса)
Its out of this word (Они не из этого мира) - пародия на какой фильм?
Может быть и нет пародии в названиях? "Sweater girl from Mars" и "Its out of this word" - такие фильмы есть или нет?
P.S.
Sweater girl from Mars (Красотки с Марса) - точно пародия на фильм (показывают Devil Girl from Mars).
[Profile] [PM]

Guest

Gender: Unknown

Post 25-Mar-2015 23:58 (after 1 year 3 months)

[Quote]

Друзья, есть у кого-нибудь возможность раздать данный фильм? Большое спасибо.
 

$Shorox

Gender: Male

Longevity: 6 years 5 months

Posts: 1888

Post 26-Mar-2015 07:39 (after 7 hours)

[Quote]

Pocock,
В трех разделах этой части форума могут скачивать только участники групп: Группы
Вступить можно так: Для вновь зарегистрированных !!!
Со временем можете сами свою группу создать. И настроить маску доступа в неё.
Тут на kosmoaelita.com можно скачивать по разному:
1. Часть релизов могут скачивать все, в том числе незарегистрированные.
2. Часть релизов могут скачивать только зарегистрированные пользователи.
3. Часть релизов могут скачивать только участники групп.
4. Релизы групп Faer и Трамвай-фильм могут скачивать все, в том числе незарегистрированные.
[Profile] [PM]

Трамвай-фильм

Gender: Male

Longevity: 4 years 9 months

Posts: 1454

Location: Россия

Post 26-Mar-2015 17:52 (after 10 hours)

[Quote]

Its out of this word (Они не из этого мира) - пародия на какой фильм?
кажется был фильм Не с этой Земли: http://www.imdb.com/title/tt0095756/ А так же http://www.imdb.com/title/tt0050778/
Или возможно It came from... дальше подставляйте что больше нравится
[Profile] [PM]

$Shorox

Gender: Male

Longevity: 6 years 5 months

Posts: 1888

Post 26-Mar-2015 18:04 (after 11 minutes)

[Quote]

Трамвай-фильм,
Не с этой Земли: http://www.imdb.com/title/tt0095756/ - скорее не он, потому что выпущен - 20 May 1988 (USA), а этот - 14 May 1988. Не успели бы спародировать.
[Profile] [PM]

Трамвай-фильм

Gender: Male

Longevity: 4 years 9 months

Posts: 1454

Location: Россия

Post 26-Mar-2015 20:00 (after 1 hour 56 minutes)

[Quote]

10175Трамвай-фильм,
Не с этой Земли: http://www.imdb.com/title/tt0095756/ - скорее не он, потому что выпущен - 20 May 1988 (USA), а этот - 14 May 1988. Не успели бы спародировать.
посмотрите вторую сслыку, там оригинал 57 года
[Profile] [PM]

$Shorox

Gender: Male

Longevity: 6 years 5 months

Posts: 1888

Post 26-Mar-2015 20:41 (after 40 minutes)

[Quote]

Трамвай-фильм,
Здесь он есть.
Во всех четырёх вариантах:
Римейки и оригинал данного фильма
1 Not of This Earth 1957
2 Not of This Earth 1988
3 Not of This Earth 1995
4 Star Portal / Not of this Earth II: Final Contact 1997
[Profile] [PM]

Трамвай-фильм

Gender: Male

Longevity: 4 years 9 months

Posts: 1454

Location: Россия

Post 26-Mar-2015 23:17 (after 2 hours 36 minutes)

[Quote]

вероятно на первый фильм и была пародия.
[Profile] [PM]
Display posts:    
Reply to topic

Current time is: 26-May 22:58

All times are UTC + 3



You cannot post new topics in this forum
You cannot reply to topics in this forum
You cannot edit your posts in this forum
You cannot delete your posts in this forum
You cannot vote in polls in this forum
You cannot attach files in this forum
You cannot download files in this forum