Джокер / Joker (Шириш Кандэр / Shirish Kunder) [2012 г., Комедия, фантастика, BDRip-720p] ПМ

Reply to topic
 
Author Message

admin ®

Gender: Male

Longevity: 6 years 11 months

Posts: 4725

Location: Україна

Post 14-Dec-2013 21:31

[Quote]

Джокер / Joker
Год выпуска: 2012
Страна: Индия, Hari Om Entertainment Company, Three's Company Production
Жанр: Комедия, фантастика
Продолжительность: 01:43:33
Перевод: Профессиональный (многоголосый, закадровый)
Режиссер: Шириш Кандэр / Shirish Kunder
В ролях:
Priya Ahuja ... Female Reporter 6
Asrani
Neelam Bhagchandani ... Female Reporter 4
Madhavi Desphange ... Female Reporter 3
Avtar Gill
Gurpreet Guggi ... Cameraman
Greg Heffernan ... CEO Mr. Smith of SpaceLabs
Vrajesh Hirjee
Javed Jaffrey
Darshan Jariwala
Bikramjeet Kanwarpal
Farah Khan
Akshay Kumar ... Rajkumar / Agastya
Minissha Lamba
Sanjay Mishra
Описание: В 1947 году, когда чертились границы Индии и Пакистана, местечку Паглапур нигде не нашлось места. После одного из боев во время передела границ, пациенты крупнейшей психиатрической лечебницы региона вырвались на свободу и поселились в Паглапуре, создав свою собственную республику. И так они существовали 60 лет! В то время как мир вокруг менялся, Паглапур оставался изолированным, без электричества, без телевидения и без здравого рассудка! И теперь, спустя десятилетия, когда все окончательно забыли об этом месте, учёный НАСА индийского происхождения и его красавица жена направляются в эту деревню. Ученый работает над сверхсекретным проектом по созданию устройств для общения с иностранцами. Так зачем он едет в деревню, колоритные обитатели которой, то воображают себя фонарными столбами, то говорят на языке, напоминающем бред, а то и вовсе считают, что Махатма Ганди всё ещё где-то рядом сражается за независимость? И, что наиболее важно, как они собираются переключить внимание всего Света на эту забытую всеми деревню?
Релиз

Качество: BDRip-720p
Формат: MKV
Видео: x264, 2562 кбит/с, 1280x544, 23.976 к/с
Аудио 1: Русский ПМ New(AC3, 6 ch, 448 Кбит/с)
Аудио 2: Русский ПМ Old(AC3, 2 ch, 192 Кбит/с)
Аудио 3: Хинди (AC3, 6 ch, 448 Кбит/с)
Субтитры : РАнглийские ()
Работа над релизом:
Сценрип найден в юзенете.
Запись звука с Zee TV: Nilda.
Русская дорожка с Тв - крайне невысокого качества, поэтому были выделены русские реплики
и наложены на центральный канал 5.1 хинди.
Получилось то, что получилось.
Нетронутая русская синхронизированная дорожка с ТВ иакже присутствует.
Вся работа с рипом и звуком - sasha20072007 (kosmoaelita)

Семпл обеих озвучек


Трейлер

Пример русской озвучки

Дополнительно

слоган «Sometimes BEING ALIEN is the only option!»
===============================================
Для Украины: рип дополнительно залит в файлохранилище
Для удаления,добавления и извлечения дорожек в mkv используйте бесплатную портативную mkvmerge GUI 6.2.0
Для присоединения потом дорожек к avi воспользуйтесь VirtualDubMod

Отзывы

Жаль что людям сказать нечего, а фильм получился очень веселенький, конечно, благодаря игре Акшая и красивой артистке Сонакши. Отдохнула после трудового и тяжелого дня. Спасибо!
---------------------------------------------------
Спасибо большое! Фильм-чудесный!)Такая добрая САТИРА,в которой такие милые герои! Они такие хорошие и милые,что от фильма-весело и легко на душе становится!)
--------------------------------------------------

Рецензия

«Джокер не принадлежит ни к одной масти, он всегда останется сам по себе» (с)
«Джокер» (2012, Индия) привлек мое внимание совершенно случайно. Жанр «фантастика», указанный в инфе о фильме, и страна производства — и вот я уже качаю его в надежде поржать. Мои надежды сбылись: если русские ужастики в большинстве своем автоматически становятся комедиями, то с индийской фантастикой происходит аналогичная картина, в чем я убедилась еще при случайном просмотре фильма «Робот» (2010, Индия), хотя тот скорее был фантастическим боевиком, а в «Джокере» типа драма, хотя скорее пародия на болливудскую драму и голливудскую фантастику)
По сюжету, в 1947 году после одного из боев во время передела границ Индии и Пакистана пациенты крупнейшей психиатрической лечебницы региона вырвались на свободу и поселились в местечке Паглапур, создав свою собственную республику. 65 лет они оставались изолированными от общества и жили без электричества, телевидения и прочих благ современной цивилизации. Впрочем, это только первые пять минут фильма. Потом в деревню возвращается единственный разумный человек — сын главы. Он стал великим ученым и верит, что сможет установить контакт с инопланетянами, в чем ему помогает НАСА. Молодой человек всячески пытается помочь оказавшейся на грани разорения деревне, но сталкивается с бюрократией и бумажной волокитой, так что ему приходится включить фантазию. Все, что начинается дальше, за гранью добра, зла и здравого смысла, и это уморительно смешно! Не надо думать о происходящем, искать ляпы и смысл (хотя смысл там как раз есть, просто не надо его искать до титров), надо просто наслаждаться! Фильм выдержан в лучших традициях индийского кино (разве что без ирреальных драк): местный герой (видимо, нынешний болливудский Брэд Питт — Акшай Кумар), его красавица-жена, куча деревенской бедноты, политики-беспредельщики, песни, пляски и, конечно же, хэппи-энд! Кстати, инопланетяне наблюдают как минимум за Индией, и как шикарно они это доказывают — это мой любимый момент!
Плюсы — фильм идет всего полтора часа, в отличие от большинства других болливудских, а в последнее время и голливудских фильмов; танцы не очень затянуты и большинство из них вписано в сюжетную линию, а не просто с бухты-барахты; у главного героя и парочки второстепенных (особенно женщин) в большинстве своем приятные лица.
Минусы: все-таки юмор порой туповат, хотя и прекрасно гармонирует с сюжетом, и не отпускает ощущение, что все будет хорошо, поэтому кажется, что концовка будет не так интересна, хотя в итоге она превзошла мои ожидания.
В общем, рекомендовано к просмотру как хорошее расслабляющее средство для отдыха мозга и физического праздника живота — кажется, от смеха накачала пару мышц)) Любителям пародий и болливудских фильмов смотреть обязательно.

MediaInfo

Общее
Уникальный идентификатор : 242364466120223112527838297443582028221 (0xB655B2C2312DAD4DB999E0C8D8AF29BD)
Полное имя : N:\Joker 2012.x264.BDRip.720p.ScenRip.Rus.kosmoaelita.mkv
Формат : Matroska
Версия формата : Version 4 / Version 2
Размер файла : 2,64 Гбайт
Продолжительность : 1 ч. 43 м.
Общий поток : 3651 Кбит/сек
Название фильма : Joker / Джокер / 2012 / BDRip-720p ScenRip / Релиз kosmoaelita
Дата кодирования : UTC 2013-12-14 20:25:30
Программа кодирования : mkvmerge v6.6.0 ('The Edge Of The In Between') built on Dec 1 2013 17:55:00
Библиотека кодирования : libebml v1.3.0 + libmatroska v1.4.1
Attachment : Yes
Видео
Идентификатор : 1
Формат : AVC
Формат/Информация : Advanced Video Codec
Профиль формата : High@L4.2
Параметр CABAC формата : Да
Параметр ReFrames формата : 4 кадра
Идентификатор кодека : V_MPEG4/ISO/AVC
Продолжительность : 1 ч. 43 м.
Битрейт : 2562 Кбит/сек
Ширина : 1280 пикселей
Высота : 544 пикселя
Соотношение сторон : 2,35:1
Режим частоты кадров : Постоянный
Частота кадров : 23,976 кадра/сек
Цветовое пространство : YUV
Субдискретизация насыщенности : 4:2:0
Битовая глубина : 8 бит
Тип развёртки : Прогрессивная
Бит/(Пиксели*Кадры) : 0.153
Размер потока : 1,80 Гбайт (68%)
Заголовок : Релиз www.kosmoaelita.com
Библиотека кодирования : x264 core 125 r2200 999b753
Настройки программы : cabac=1 / ref=4 / deblock=1:-1:-1 / analyse=0x3:0x113 / me=umh / subme=7 / psy=1 / psy_rd=1.00:0.15 / mixed_ref=1 / me_range=16 / chroma_me=1 / trellis=1 / 8x8dct=1 / cqm=0 / deadzone=21,11 / fast_pskip=1 / chroma_qp_offset=-3 / threads=12 / lookahead_threads=2 / sliced_threads=0 / nr=0 / decimate=1 / interlaced=0 / bluray_compat=0 / constrained_intra=0 / bframes=4 / b_pyramid=2 / b_adapt=1 / b_bias=0 / direct=1 / weightb=1 / open_gop=0 / weightp=2 / keyint=240 / keyint_min=23 / scenecut=50 / intra_refresh=0 / rc_lookahead=50 / rc=2pass / mbtree=1 / bitrate=2562 / ratetol=1.0 / qcomp=0.60 / qpmin=10 / qpmax=51 / qpstep=4 / cplxblur=20.0 / qblur=0.5 / vbv_maxrate=31250 / vbv_bufsize=31250 / nal_hrd=none / ip_ratio=1.40 / aq=1:1.00
Язык : Hindi
Default : Да
Forced : Нет
Аудио #1
Идентификатор : 2
Формат : AC-3
Формат/Информация : Audio Coding 3
Расширение режима : CM (complete main)
Параметр Endianness формата : Big
Идентификатор кодека : A_AC3
Продолжительность : 1 ч. 43 м.
Вид битрейта : Постоянный
Битрейт : 448 Кбит/сек
Каналы : 6 каналов
Расположение каналов : Front: L C R, Side: L R, LFE
Частота : 48,0 КГц
Битовая глубина : 16 бит
Метод сжатия : С потерями
Размер потока : 332 Мбайт (12%)
Заголовок : Русский ПМ (AC3 5.1 448)
Язык : Russian
Default : Да
Forced : Да
Аудио #2
Идентификатор : 3
Формат : AC-3
Формат/Информация : Audio Coding 3
Расширение режима : CM (complete main)
Параметр Endianness формата : Big
Идентификатор кодека : A_AC3
Продолжительность : 1 ч. 43 м.
Вид битрейта : Постоянный
Битрейт : 192 Кбит/сек
Каналы : 2 канала
Расположение каналов : Front: L R
Частота : 48,0 КГц
Битовая глубина : 16 бит
Метод сжатия : С потерями
Размер потока : 142 Мбайт (5%)
Заголовок : Русский Old (AC3 2.0 192 from TV)
Язык : Russian
Default : Нет
Forced : Нет
Аудио #3
Идентификатор : 4
Формат : AC-3
Формат/Информация : Audio Coding 3
Расширение режима : CM (complete main)
Параметр Endianness формата : Big
Идентификатор кодека : A_AC3
Продолжительность : 1 ч. 43 м.
Вид битрейта : Постоянный
Битрейт : 448 Кбит/сек
Каналы : 6 каналов
Расположение каналов : Front: L C R, Side: L R, LFE
Частота : 48,0 КГц
Битовая глубина : 16 бит
Метод сжатия : С потерями
Задержка видео : 140 мс.
Размер потока : 332 Мбайт (12%)
Заголовок : Hindi (AC3 5.1 448)
Язык : Hindi
Default : Нет
Forced : Нет
Текст
Идентификатор : 5
Формат : UTF-8
Идентификатор кодека : S_TEXT/UTF8
Идентификатор кодека/Информация : UTF-8 Plain Text
Язык : English
Default : Да
Forced : Нет

Скриншоты














Last edited by admin on 2013-12-15 00:09; edited 5 times in total
[Profile] [PM]

bot

Post 14-Dec-2013 23:39 (after 2 hours 7 minutes)

Топик был перенесен из форума Тестовый в форум 2012
admin2
 

admin ®

Gender: Male

Longevity: 6 years 11 months

Posts: 4725

Location: Україна

Post 15-Dec-2013 02:19 (after 4 hours)

[Quote]

Любая фантастика, снятая в Индии, тут же преращается в сатирическую комедию!
Классный легкий фильм!
[Profile] [PM]
Quick Reply

Name:

            
Heads necessary to send messages to enable JavaScript
Display posts:    
Reply to topic

Current time is: 20-Aug 08:09

All times are UTC + 3



You cannot post new topics in this forum
You can reply to topics in this forum
You cannot edit your posts in this forum
You cannot delete your posts in this forum
You cannot vote in polls in this forum
You cannot attach files in this forum
You cannot download files in this forum