Вступая в контакт / Joey / Making Contact (Роланд Эммерих / Roland Emmerich) [1985 г., Фантастика, боевик, BDRip-1080p] ПМ

Reply to topic
DL-List and Torrent activity
Size:  4.56 GB   |    Registered:  6 years 3 months   |    Completed:  0 times

Seeder not seen: 1 year 3 months

 
   
 
 
 
Author Message

admin ®

Gender: Male

Longevity: 7 years 7 months

Posts: 4811

Post 13-Dec-2013 11:21

[Quote]

Вступая в контакт / Joey / Making Contact
Год выпуска: 1985
Страна: США, Германия
Жанр: Фантастика, боевик
Продолжительность: 01:37:55
Перевод: Профессиональный (многоголосый закадровый)
Режиссер: Роланд Эммерих / Roland Emmerich
В ролях:
Joshua Morrell ... Joey Collins
Eva Kryll ... Laura Collins
Tammy Shields ... Sally
Jan Zierold ... Martin
Barbara Klein ... Dr. Haiden
Matthias Kraus ... Bernie
Jerry Hall ... William
Sean Johnson ... Bobby
Christine Goebbels ... Alice
Ray Kaselonis ... Steven
Joel Kleinman
Berit Morrell
Punky ... Scooter
Christoph Lindert ... Sheriff
Axel Berg ... Parapsychologist Ralph
Описание: Подросток Джоуи тяжело переживал смерть отца. Однажды вечером, когда все игрушки в комнате Джоуи сами собой задвигались, загудели, завертелись, запрыгали, мальчик понял, что дух отца сообщает ему о своем существовании. Поэтому Джоуи нисколько не удивился, услышав в трубке игрушечного телефона такой родной и такой знакомый голос. Но мальчик не знал, что потусторонние силы, дав знать о себе, гораздо чаще являются носителями Зла, нежели стремятся помочь человеку
Качество: BDRip-1080p
Формат: MKV
Видео: x264, 5567 кбит/с, 1920x816, 23.976 к/с, crf=20
Аудио 1: Русский (AC3, 2 ch, 192 Кбит/с)
Аудио 2: Немецкий (DTS, 6 ch, 1536 Кбит/с)
Работа над релизом:
Сцен-рип найден в юзенете



Трейлер

Дополнительно

слоган «An out of this world adventure»
Also Known As (AKA)
Making Contact
Denmark (video title) Telefon fra afdøde
Spain El secreto de Joey
Greece (video title) Joey: O filos sou!...
Italy (TV title) Joey, una storia meravigliosa
Peru Joey haciendo contacto
===============================================
Для Украины: рип дополнительно залит в файлохранилище
Для удаления,добавления и извлечения дорожек в mkv используйте бесплатную портативную mkvmerge GUI 6.2.0
Для присоединения потом дорожек к avi воспользуйтесь VirtualDubMod

Отзывы

ооо, помню в детстве на видеокассете этот фильм до дыр что называется засматривал, каждую неделю садился rawger_wilcaw@inbox.ru вместе с родителями и смотрел смайлик+ родители кто в книгу, кто в газету, а мне каждый раз как в первый смотрелось смайлик+ обязательно скачаю
-----------------------------------------------------

Рецензия

Возвращение Дарта Вейдера
Один из ранних фильмов Роланд Эммерих (автора голливудских блокбастеров День независимости, Послезавтра, Годзилла и 2012) является точной калькой с культового «Полтергейста» Тоуба Хупера и Стивена Спилберга. Но если не обращать на это внимание, то фильм может доставить массу положительных эмоций, а для фанатов 80-х лучше и быть не могло.
Маленький мальчик после смерти отца, начинают атаковать игрушки. По телефону раздаётся знакомый голос, а в детской разбушевался полтергейст. Одноклассники считают юного Джоуи большим фантазёром, пока сами не окажутся участниками паранормальных явлений, а под занавес, появится сам Дарт Вейдер из «Звёздных войн».
«Вступая в контакт» — 100% детский фильм и не является такой откровенной чушью, которой оказался следующий проект Эмериха «Голливудский монстр» (1987), поэтому будет интересен тем зрителям, которые хотят узнать с чего начиналась карьера голливудского мастера по части фильмов-катастроф.
6 из 10
=====================================================
maykltreborn
рецензии (440)оценкидрузьяфильмызвёзды
Дарт Вейдер против Чаки.
Фильм про мальчика, у которого умер отец, но он смог с ним разговаривать по игрушечному телефону, и в добавок ко всему все игрушки ожили, а одна плохая игрушка даже пыталась поработить и убить всех детей в городке…
Если закрыть глаза на то, что Эмерих снял 100% шаблонное кино, то я совсем не разглядел какое либо логическое и осмысленное повествование. У меня сложилось впечатление, что фильм слишком нагромоздили актёрами и игрушками, добавили лёгкую любовь к звёздным войнам и выпустили этот фильм на экраны.
Короче слабая постановка, которая просто должна была остаться в том же году, в каком её и выпустили…
4 из 10

MediaInfo

Общее
Уникальный идентификатор : 214635500266161342477222204222859644653 (0xA1794B30853CDFB28B209814DB380EED)
Полное имя : N:\Joey 1985.x264.BDRip.1080p.ScenRip.mkv
Формат : Matroska
Версия формата : Version 4 / Version 2
Размер файла : 4,56 Гбайт
Продолжительность : 1 ч. 38 м.
Общий поток : 6660 Кбит/сек
Название фильма : -=Released by Kortec for MediaClub=-
Дата кодирования : UTC 2013-12-12 02:37:52
Программа кодирования : mkvmerge v6.6.0 ('The Edge Of The In Between') built on Dec 1 2013 17:55:00
Библиотека кодирования : libebml v1.3.0 + libmatroska v1.4.1
Видео
Идентификатор : 1
Формат : AVC
Формат/Информация : Advanced Video Codec
Профиль формата : High@L4.1
Параметр CABAC формата : Да
Параметр ReFrames формата : 5 кадров
Идентификатор кодека : V_MPEG4/ISO/AVC
Продолжительность : 1 ч. 38 м.
Битрейт : 5567 Кбит/сек
Ширина : 1920 пикселей
Высота : 816 пикселей
Соотношение сторон : 2,35:1
Режим частоты кадров : Постоянный
Частота кадров : 24,000 кадра/сек
Цветовое пространство : YUV
Субдискретизация насыщенности : 4:2:0
Битовая глубина : 8 бит
Тип развёртки : Прогрессивная
Бит/(Пиксели*Кадры) : 0.148
Размер потока : 3,81 Гбайт (84%)
Заголовок : Joey (1985)
Библиотека кодирования : x264 core 138 r2358 9e941d1
Настройки программы : cabac=1 / ref=5 / deblock=1:-3:-3 / analyse=0x3:0x113 / me=umh / subme=7 / psy=1 / psy_rd=1.00:0.15 / mixed_ref=1 / me_range=16 / chroma_me=1 / trellis=1 / 8x8dct=1 / cqm=0 / deadzone=21,11 / fast_pskip=0 / chroma_qp_offset=-3 / threads=10 / lookahead_threads=1 / sliced_threads=0 / nr=0 / decimate=1 / interlaced=0 / bluray_compat=0 / constrained_intra=0 / bframes=3 / b_pyramid=2 / b_adapt=1 / b_bias=0 / direct=3 / weightb=1 / open_gop=0 / weightp=2 / keyint=250 / keyint_min=24 / scenecut=40 / intra_refresh=0 / rc_lookahead=40 / rc=crf / mbtree=1 / crf=20.0 / qcomp=0.60 / qpmin=0 / qpmax=69 / qpstep=4 / ip_ratio=1.40 / aq=1:1.00
Default : Да
Forced : Нет
Аудио #1
Идентификатор : 2
Формат : AC-3
Формат/Информация : Audio Coding 3
Расширение режима : CM (complete main)
Параметр Endianness формата : Big
Идентификатор кодека : A_AC3
Продолжительность : 1 ч. 38 м.
Вид битрейта : Постоянный
Битрейт : 192 Кбит/сек
Каналы : 2 канала
Расположение каналов : Front: L R
Частота : 48,0 КГц
Битовая глубина : 16 бит
Метод сжатия : С потерями
Размер потока : 135 Мбайт (3%)
Язык : Russian
Default : Да
Forced : Да
Аудио #2
Идентификатор : 3
Формат : DTS
Формат/Информация : Digital Theater Systems
Режим : 16
Параметр Endianness формата : Big
Идентификатор кодека : A_DTS
Продолжительность : 1 ч. 38 м.
Вид битрейта : Постоянный
Битрейт : 768 Кбит/сек
Каналы : 2 канала
Расположение каналов : Front: L R
Частота : 48,0 КГц
Битовая глубина : 24 бит
Метод сжатия : С потерями
Размер потока : 539 Мбайт (12%)
Заголовок : DTS
Язык : German
Default : Нет
Forced : Нет

Скриншоты




cd Рип дополнительно залит на ОБЛАКО cd2
Joey 1985.x264.BDRip.1080p.kosmoaelita.ScenRip.mkv.torrent
 GOLD TORRENT! DOWNLOAD TRAFFIC DOES NOT CONSIDER! 
Torrent: Registered [ 2013-12-13 11:35 ]

Download .torrent

Download

92 KB

Status: checked
Completed: 0 times
Size: 4.56 GB
 
[Profile] [PM]

Guest

Gender: Unknown

Post 14-Dec-2013 13:35 (after 1 day 2 hours)

[Quote]

Эта европейская длинная версия, за америк. укороченной версией с другим наполнением сцен и кадров и другим переводом обращайтесь ко мне bs
 
Display posts:    
Reply to topic

Current time is: 03-Apr 10:10

All times are UTC + 3



You cannot post new topics in this forum
You cannot reply to topics in this forum
You cannot edit your posts in this forum
You cannot delete your posts in this forum
You cannot vote in polls in this forum
You cannot attach files in this forum
You can download files in this forum