Посетитель / Визитер / Stridulum / The Visitor (Джулио Парадизи / Giulio Paradisi) [1979 г., ужасы, фантастика,, BDRip-AVC] ЛО ()

Reply to topic
 
Author Message

admin ®

Gender: Male

Longevity: 7 years 10 months

Posts: 4799

Post 10-Dec-2013 09:55

[Quote]

Посетитель / Визитер / Stridulum / The Visitor
Год выпуска: 1979
Страна: США, Италия
Жанр: ужасы, фантастика,
Продолжительность: 01:44:00
Перевод: Любительский одноголосый
Режиссер: Джулио Парадизи / Giulio Paradisi
В ролях:
Mel Ferrer ... Dr. Walker
Glenn Ford ... Det. Jake Durham
Lance Henriksen ... Raymond Armstead
John Huston ... Jerzy Colsowicz
Joanne Nail ... Barbara Collins
Sam Peckinpah ... Dr. Sam Collins
Shelley Winters ... Jane Phillips
Paige Conner ... Katy Collins
Ja Townsend
Jack Dorsey
Johnny Popwell
Wallace Wilkinson ... Police Captain
Steve Somers
Lou Walker
Walter Gordon Sr.
Описание: Богатый и влиятельный мужчина Рэймонд начинает ухаживать за вдовой Барбарой Коллинз. Но насчёт его любовных настроений она может не обольщаться — на самом деле Рэймонд выполняет задание таинственного сообщества, мечтающего заполучить в своё распоряжение некую инопланетную силу, обладателем которой станет ребёнок Барбары.
Качество: BDRip-AVC
Формат: MKV
Видео: x264, 2518 кбит/с, 1024x552, 23.976 к/с, crf=20.2
Аудио 1: Русский ЛО (AC3, 2 ch, 192 Кбит/с)
Аудио 2: Итальянский (AC3, 2 ch, 192 Кбит/с)
Аудио 2: Английский (AC3, 2 ch, 192 Кбит/с)
Субтитры : Итальянские, английские
Работа над релизом:
Релиз почившего синемаскопа.
Рип с BD5O и синхрон звуковых дорожек - sasha20072007 (kosmoaelita)
DVDRip vs. BDRip



Трейлер

Пример русской озвучки

Дополнительно

слоган «They know we are here...»
бюджет $800 000
Also Known As (AKA)
Argentina Visitante del más allá
Brazil Herdeiros da Morte
Denmark Djævelen er en pige
Spain El visitante del más allá
Finland Vierailija
Greece (transliterated ISO-LATIN-1 title) O episkeptis tis Kolaseos
Norway Piken fra mørket
Poland Goscie
Sweden Satans lilla flicka
Turkey (Turkish title) Ziyaretçi
USA The Visitor
USA (alternative spelling) The Visitors
West Germany Die Außerirdischen
===============================================
Для Украины: рип и оригинальный ДВД5 дополнительно залиты в файлохранилище
Для удаления,добавления и извлечения дорожек в mkv используйте бесплатную портативную mkvmerge GUI 6.2.0
Для присоединения потом дорожек к avi воспользуйтесь VirtualDubMod

Лог кодирования

PLATFORM
------------------------------
OS Code: Microsoft Windows NT 5.1.2600 Service Pack 4
OS Name: Microsoft Windows XP Service Pack 4 (x32)
Framework: 2.0.50727.3082 (v4.0)
AviSynth: AviSynth 2.60, build:Sep 28 2013 [15:09:12]
CPU Info: AMD Phenom(tm) II X4 945 Processor (~3149), 4 core(s)
RAM Total: 3325Mb
Language: RUS (1251, ",")
SystemDrive: C:
XviD4PSP
------------------------------
Version: 5.10.331.0
Created: 05.10.2014 11:44:56
AppPath: C:\Program Files\XviD4PSP 5
TempPath: H:\TEMP
FILES
------------------------------
00008.m2ts >
000а08.mkv
TASK
------------------------------
Format: MKV
Duration: 01:48:52:620 (156626)
VideoDecoder: DirectShowSource2
Resolution: 1920x1080 > 1024x552
Aspect: 1.8533 > 1.8551
VCodecPreset: Custom
VEncodingMode: Quality
VideoCodec: h264 > x264
VideoBitrate: 22830 > Q20.2
Framerate: 23.976
SourceType: PROGRESSIVE
FieldOrder: UNKNOWN
SCRIPT
------------------------------
Import("C:\Program Files\XviD4PSP 5\dlls\AviSynth\functions\AudioFunctions.avs")
Import("C:\Program Files\XviD4PSP 5\dlls\AviSynth\functions\VideoFunctions.avs")
LoadPlugin("C:\Program Files\XviD4PSP 5\dlls\AviSynth\plugins\avss.dll")
LoadPlugin("C:\Program Files\XviD4PSP 5\dlls\AviSynth\plugins\NicAudio.dll")
DirectShowSource2("H:\1111
\THE_VISITOR_1979_1080p_AVC_Shadowman\BDMV\STREAM\00008.m2ts", fps=23.976,
preroll=15, lavs="L3", lavd="L3")
ConvertToYV12()
###[FILTERING]###
###[FILTERING]###
Crop(0, 22, -0, -22)
Spline64Resize(1024, 552)
VIDEO ENCODING
------------------------------
Encoding video to: H:\1111\THE_VISITOR_1979_1080p_AVC_Shadowman\000а08.mkv
x264 Q20.2 1024x552 23.976fps (156626 frames)
x264.exe: --crf 20.2 --preset veryslow --tune film --level 4.1 --ref 10 --aq-strength 0.9 --
bframes 10 --psy-rd 0.99:0.14 --qcomp 0.65 --subme 11 --rc-lookahead 80 --keyint 210 --
ipratio 1.25 --pbratio 1.17 --colorprim bt709 --transfer bt709 --colormatrix bt709 --sar 1:1 --
output "H:\1111\THE_VISITOR_1979_1080p_AVC_Shadowman\000а08.mkv"
"H:\TEMP\1867.avs"
avs [info]: 1024x552p 1:1 @ 2500000/104271 fps (cfr)
x264 [info]: using SAR=1/1
x264 [info]: using cpu capabilities: MMX2 SSE2Fast SSEMisalign LZCNT
x264 [info]: profile High, level 4.1
x264 [info]: frame I:1130 Avg QP:19.06 size: 71121
x264 [info]: frame P:30644 Avg QP:21.43 size: 21962
x264 [info]: frame B:124852 Avg QP:22.85 size: 10815
x264 [info]: consecutive B-frames: 2.0% 1.6% 4.4% 9.3% 13.7% 55.7% 6.6% 1.5%
2.0% 1.5% 1.7%
x264 [info]: mb I I16..4: 14.3% 72.3% 13.5%
x264 [info]: mb P I16..4: 1.3% 10.8% 0.8% P16..4: 34.4% 35.7% 8.1% 0.7% 0.1%
skip: 8.0%
x264 [info]: mb B I16..4: 0.1% 3.0% 0.1% B16..8: 40.6% 15.4% 1.8% direct: 5.3%
skip:33.6% L0:47.0% L1:48.3% BI: 4.7%
x264 [info]: 8x8 transform intra:87.1% inter:71.1%
x264 [info]: direct mvs spatial:99.9% temporal:0.1%
x264 [info]: coded y,uvDC,uvAC intra: 91.4% 86.4% 60.1% inter: 25.6% 27.9% 6.1%
x264 [info]: i16 v,h,dc,p: 21% 17% 8% 54%
x264 [info]: i8 v,h,dc,ddl,ddr,vr,hd,vl,hu: 7% 5% 7% 12% 16% 14% 15% 11% 12%
x264 [info]: i4 v,h,dc,ddl,ddr,vr,hd,vl,hu: 10% 6% 3% 9% 16% 15% 15% 12% 13%
x264 [info]: i8c dc,h,v,p: 41% 21% 17% 21%
x264 [info]: Weighted P-Frames: Y:4.5% UV:2.3%
x264 [info]: ref P L0: 44.2% 9.4% 19.4% 6.8% 6.0% 4.2% 4.0% 2.0% 2.0% 1.8%
0.3% 0.0%
x264 [info]: ref B L0: 68.6% 13.5% 7.0% 3.5% 2.6% 2.2% 1.7% 0.7% 0.3%
x264 [info]: ref B L1: 90.8% 9.2%
x264 [info]: kb/s:2576.13
x264 [total]: encoded 156626 frames, 4.90 fps, 2576.13 kb/s
TIME
------------------------------
Общее время кодирования: 8 hour 52 min 32 sec
Файл получился на: 2007.29 mb

MediaInfo

Общее
Уникальный идентификатор : 199961429722442784010158611696105093610 (0x966F2BA75CB56AB0834867132978F9EA)
Полное имя : F:\Stridulum aka The Visitor 1979.x264.BDRip.AVC.Rus.kosmoaelita.mkv
Формат : Matroska
Версия формата : Version 4 / Version 2
Размер файла : 2,43 Гбайт
Продолжительность : 1 ч. 48 м.
Общий поток : 3189 Кбит/сек
Название фильма : THE VISITOR / Stridulum 1979 / rip from BD50 by sasha20072007 (kosmoaelita) (2014-10-30), crf=20.2
Дата кодирования : UTC 2014-10-31 23:39:20
Программа кодирования : mkvmerge v6.6.0 ('The Edge Of The In Between') built on Dec 1 2013 17:55:00
Библиотека кодирования : libebml v1.3.0 + libmatroska v1.4.1
Attachements : 000а08.mkv.encoding.log
Видео
Идентификатор : 1
Формат : AVC
Формат/Информация : Advanced Video Codec
Профиль формата : High@L4.1
Параметр CABAC формата : Да
Параметр ReFrames формата : 10 кадров
Идентификатор кодека : V_MPEG4/ISO/AVC
Продолжительность : 1 ч. 48 м.
Битрейт : 2518 Кбит/сек
Ширина : 1024 пикселя
Высота : 552 пикселя
Соотношение сторон : 1,85:1
Режим частоты кадров : Постоянный
Частота кадров : 23,976 кадра/сек
Цветовое пространство : YUV
Субдискретизация насыщенности : 4:2:0
Битовая глубина : 8 бит
Тип развёртки : Прогрессивная
Бит/(Пиксели*Кадры) : 0.186
Размер потока : 1,91 Гбайт (79%)
Заголовок : kosmoaelita
Библиотека кодирования : x264 core 130 r2273 b3065e6
Настройки программы : cabac=1 / ref=10 / deblock=1:-1:-1 / analyse=0x3:0x133 / me=umh / subme=11 / psy=1 / psy_rd=0.99:0.14 / mixed_ref=1 / me_range=24 / chroma_me=1 / trellis=2 / 8x8dct=1 / cqm=0 / deadzone=21,11 / fast_pskip=1 / chroma_qp_offset=-3 / threads=6 / lookahead_threads=1 / sliced_threads=0 / nr=0 / decimate=1 / interlaced=0 / bluray_compat=0 / constrained_intra=0 / bframes=10 / b_pyramid=2 / b_adapt=2 / b_bias=0 / direct=3 / weightb=1 / open_gop=0 / weightp=2 / keyint=210 / keyint_min=21 / scenecut=40 / intra_refresh=0 / rc_lookahead=80 / rc=crf / mbtree=1 / crf=20.2 / qcomp=0.65 / qpmin=0 / qpmax=69 / qpstep=4 / ip_ratio=1.25 / aq=1:0.90
Язык : English
Default : Да
Forced : Нет
Основные цвета : BT.709
Характеристики трансфера : BT.709
Коэффициенты матрицы : BT.709
Аудио #1
Идентификатор : 2
Формат : AC-3
Формат/Информация : Audio Coding 3
Расширение режима : CM (complete main)
Параметр Endianness формата : Big
Идентификатор кодека : A_AC3
Продолжительность : 1 ч. 48 м.
Вид битрейта : Постоянный
Битрейт : 192 Кбит/сек
Каналы : 2 канала
Расположение каналов : Front: L R
Частота : 48,0 КГц
Битовая глубина : 16 бит
Метод сжатия : С потерями
Размер потока : 150 Мбайт (6%)
Язык : Russian
Default : Да
Forced : Нет
Аудио #2
Идентификатор : 3
Формат : AC-3
Формат/Информация : Audio Coding 3
Расширение режима : CM (complete main)
Параметр Endianness формата : Big
Идентификатор кодека : A_AC3
Продолжительность : 1 ч. 48 м.
Вид битрейта : Постоянный
Битрейт : 192 Кбит/сек
Каналы : 2 канала
Расположение каналов : Front: L R
Частота : 48,0 КГц
Битовая глубина : 16 бит
Метод сжатия : С потерями
Размер потока : 150 Мбайт (6%)
Язык : Italian
Default : Нет
Forced : Нет
Аудио #3
Идентификатор : 4
Формат : AC-3
Формат/Информация : Audio Coding 3
Расширение режима : CM (complete main)
Параметр Endianness формата : Big
Идентификатор кодека : A_AC3
Продолжительность : 1 ч. 48 м.
Вид битрейта : Постоянный
Битрейт : 224 Кбит/сек
Каналы : 2 канала
Расположение каналов : Front: L R
Частота : 48,0 КГц
Битовая глубина : 16 бит
Метод сжатия : С потерями
Размер потока : 174 Мбайт (7%)
Язык : English
Default : Нет
Forced : Нет
Текст #1
Идентификатор : 5
Формат : VobSub
Режим смешивания : zlib
Идентификатор кодека : S_VOBSUB
Идентификатор кодека/Информация : The same subtitle format used on DVDs
Язык : English
Default : Да
Forced : Нет
Текст #2
Идентификатор : 6
Формат : VobSub
Режим смешивания : zlib
Идентификатор кодека : S_VOBSUB
Идентификатор кодека/Информация : The same subtitle format used on DVDs
Язык : Italian
Default : Нет
Forced : Нет
Меню
00:00:00.000 : en:00:00:00.000
00:13:17.213 : en:00:13:17.213
00:20:56.255 : en:00:20:56.255
00:32:11.429 : en:00:32:11.429
00:40:28.343 : en:00:40:28.343
00:50:53.050 : en:00:50:53.050
01:00:41.847 : en:01:00:41.847
01:09:54.941 : en:01:09:54.941
01:20:13.642 : en:01:20:13.642
01:30:15.327 : en:01:30:15.327
01:40:16.761 : en:01:40:16.761
01:46:08.362 : en:01:46:08.362
01:48:52.651 : en:01:48:52.651

Скриншоты









Скринлист

cd Рип дополнительно залит на mail.ru cd2


Last edited by admin on 2014-11-01 11:13; edited 3 times in total
[Profile] [PM]

admin ®

Gender: Male

Longevity: 7 years 10 months

Posts: 4799

Post 01-Nov-2014 11:10 (after 10 months 22 days)

[Quote]

DVDRip заменен на BDRip-AVC
DVDRip vs. BDRip
[Profile] [PM]
Display posts:    
Reply to topic

Current time is: 07-Jul 06:18

All times are UTC + 3



You cannot post new topics in this forum
You cannot reply to topics in this forum
You cannot edit your posts in this forum
You cannot delete your posts in this forum
You cannot vote in polls in this forum
You cannot attach files in this forum
You cannot download files in this forum