Ниденион - Битва Колоний / Звездный крейсер Найденион / Nydenion - Krieg der Kolonien / Nydenion Krieg der Kolonien (Джек Мойк / Jack Moik) [2010, Германия, фантастика, боевик, BDRip(1080p)] ПМ (Лицензия), ЛО (slavnus), СТ, Original Ger Fre

Reply to topic
 
Author Message

admin ®

Gender: Male

Longevity: 6 years 11 months

Posts: 4725

Location: Україна

Post 08-Sep-2012 06:03

[Quote]

Ниденион - Битва Колоний / Звездный крейсер Найденион / Nydenion - Krieg der Kolonien
Страна: Германия
Жанр: фантастика, боевик
Год выпуска: 2010
Продолжительность: 01:30:04
Перевод: Перевод: ПМ (Лицензия), ЛО (slavnus), СТ
Cубтитры: Русские, немецкие
Оригинальная аудиодорожка: Немецкий, французский
Режиссер: Джек Мойк / Jack Moik
В ролях: Андреас Аренс, Кристина Даль Кэнтон, Каспар Арнхолд, Мириам Барнер
Описание: С течением веков, ранние колонии превратились в гигантские империи, борющиеся за превосходство. В последние 57 лет число погибших возрасло до миллиарда. Растерявший иллюзии летчик-истребитель Рик Уолкер, работает наемным пилотом. Его нанимают для перевозки таинственной женщины к месту секретных мирных переговоров.
BDRip-720p
Качество видео: BDRip(1080p)
Формат видео: MKV
Видео: x264 1920x1080 25.00fps 8152kbps, crf=20
Аудио 1: AC3 48000Hz 6ch 448kbps (русский) ПМ
Аудио 2: AC3 48000Hz 6ch 640kbps (русский) ЛО
Аудио 3: DTS 48000Hz 6ch 1536kbps(немецкий)
Аудио 4: AC3 48000Hz 6ch 384kbps (французский)
Субтитры 1: Русские srt
Субтитры 2: Немецкие VobSub


Трейлер

Релиз

Рип стянут с юзенета
Озвучка ПМ - с лицензийного ДВД «Lizard Cinema Trade»
Озвучка ЛО - slavnus
Русские субтитры - Н.Лопатинская
Шестиканальный русский звук получен наложением чистого звука
на центр. канал немецкого DTS - sasha20072007
Для Украины: фильм дополнительно залит в файлохранилище

Рецензия

Германские «Звёздные войны»
Я, знаете ли, критик въедливый и привередливый, во многом вкусовщик, но про этот фильм мне не хочется писать ничего плохого. Вот не хочется, и всё тут! А ведь можно его разгромить так, как не разгромили (подставно) эскадрилью главного героя-капитана, с чего, собственно, и начинается всё действо. Но я, придя с работы устало, включил только что выложенную в Рунете «новинку» (причём оригинал был на французском, хотя фильм немецкий!) и с интересом посмотрел этот вариант «боевой фантастики», с ехидной, но не злой улыбкой ностальгируя по тем всемирно известным фантастическим картинам, с которых эта по-немецки педантично и скрупулёзно «срисована» (причём в прямом, компьютернографическом и даже образном смысле). Нет смысла называть художественных «доноров» «Ниденион- Битва колоний», вы все их прекрасно знаете. Но такое строгое и упорное следование фантастическим традициям кинопредшественников (а картина-то ведь исполнена на европейском «полном серьёзе»!) мне очень импонировало. Этакий вкусный компот-ассорти (известно, из каких фруктов приготовленный), навроде венгерского «Глобуса», очень любимого всем населением СССР (в том числе и мною).
Понятное дело, что в этом фильме на 98 процентов нет ничего нового (кроме, разве что, весьма убогенькой сценарной интрижки), что малоизвестные, и потому недорогие актёры (только этим можно объяснить суперскромный бюджет для такого блокбастера- всего 4 «лимона» баксов; всё ушло «на компьютеры», или же это ошибка? информацией пока не владею) сыграли хорошо если на «троечку», а то и ниже, что штамп на штампе сидит и штампом погоняет…
Но я, как говорил в начале, вкусовщик, и, того хуже, временами «человек настроения». Потому и прошу зрителей и рецензентов не шибко ругаться на меня за написанное. Ведь порой, после всяческих реальностей и обыденностей, в кино и в жизни, так здорово войти в настоящую увлекательную «космическую оперу» ("Аватар» и «Трансформеров» не предлагать!), пусть даже и насквозь компилятивную.
7 из 10
(за уважение традиций классической мировой кинофантастики; но когда же перестанут летать на ржавых корытах? это же не умно- в России даже «вылизанные» корабли выходят из строя!).

MediaInfo

Общее
Уникальный идентификатор : 180266850749239383308221431233146376422 (0x879E21F103A10C87B394612E968DD0E6)
Полное имя : F:\Nydenion.Krieg.der.Kolonien.2010.x264.BDRip.1080p.2xRus.Ger.Fr .mkv
Формат : Matroska
Версия формата : Version 4 / Version 2
Размер файла : 7,14 Гбайт
Продолжительность : 1 ч. 30 м.
Общий поток : 11,4 Мбит/сек
Название фильма : Nydenion Krieg der Kolonien / 2010 / sasha20072007
Дата кодирования : UTC 2010-02-22 21:41:31
Программа кодирования : mkvmerge v5.8.0 ('No Sleep / Pillow') built on Sep 30 2012 10:57:14
Библиотека кодирования : libebml v1.3.0 + libmatroska v1.4.0
Attachment : Yes
Видео
Идентификатор : 1
Формат : AVC
Формат/Информация : Advanced Video Codec
Профиль формата : High@L4.1
Параметр CABAC формата : Да
Параметр ReFrames формата : 4 кадра
Идентификатор кодека : V_MPEG4/ISO/AVC
Продолжительность : 1 ч. 30 м.
Битрейт : 8147 Кбит/сек
Ширина : 1920 пикселей
Высота : 1080 пикселей
Соотношение сторон : 16:9
Режим частоты кадров : Постоянный
Частота кадров : 25,000 кадров/сек
Цветовое пространство : YUV
Субдискретизация насыщенности : 4:2:0
Битовая глубина : 8 бит
Тип развёртки : Прогрессивная
Бит/(Пиксели*Кадры) : 0.157
Размер потока : 5,13 Гбайт (72%)
Библиотека кодирования : x264 core 118 r2085 8a62835
Настройки программы : cabac=1 / ref=4 / deblock=1:0:0 / analyse=0x3:0x133 / me=umh / subme=7 / psy=1 / psy_rd=1.00:0.00 / mixed_ref=1 / me_range=16 / chroma_me=1 / trellis=1 / 8x8dct=1 / cqm=0 / deadzone=21,11 / fast_pskip=0 / chroma_qp_offset=-2 / threads=6 / sliced_threads=0 / nr=0 / decimate=1 / interlaced=0 / bluray_compat=0 / constrained_intra=0 / bframes=3 / b_pyramid=2 / b_adapt=1 / b_bias=0 / direct=3 / weightb=1 / open_gop=0 / weightp=2 / keyint=250 / keyint_min=25 / scenecut=40 / intra_refresh=0 / rc_lookahead=40 / rc=crf / mbtree=1 / crf=20.0 / qcomp=0.60 / qpmin=10 / qpmax=51 / qpstep=4 / ip_ratio=1.40 / aq=1:1.00
Язык : English
Default : Да
Forced : Нет
Аудио #1
Идентификатор : 2
Формат : AC-3
Формат/Информация : Audio Coding 3
Расширение режима : CM (complete main)
Параметр Endianness формата : Big
Идентификатор кодека : A_AC3
Продолжительность : 1 ч. 30 м.
Вид битрейта : Постоянный
Битрейт : 448 Кбит/сек
Каналы : 6 каналов
Расположение каналов : Front: L C R, Side: L R, LFE
Частота : 48,0 КГц
Битовая глубина : 16 бит
Метод сжатия : С потерями
Размер потока : 289 Мбайт (4%)
Заголовок : Русский ПМ (Лицензия)
Язык : Russian
Default : Да
Forced : Да
Аудио #2
Идентификатор : 3
Формат : AC-3
Формат/Информация : Audio Coding 3
Расширение режима : CM (complete main)
Параметр Endianness формата : Big
Идентификатор кодека : A_AC3
Продолжительность : 1 ч. 30 м.
Вид битрейта : Постоянный
Битрейт : 640 Кбит/сек
Каналы : 6 каналов
Расположение каналов : Front: L C R, Side: L R, LFE
Частота : 48,0 КГц
Битовая глубина : 16 бит
Метод сжатия : С потерями
Размер потока : 412 Мбайт (6%)
Заголовок : Русский AC3 5.1 640 slavnus
Язык : Russian
Default : Нет
Forced : Нет
Аудио #3
Идентификатор : 4
Формат : DTS
Формат/Информация : Digital Theater Systems
Идентификатор кодека : A_DTS
Продолжительность : 1 ч. 30 м.
Вид битрейта : Постоянный
Битрейт : 1510 Кбит/сек
Каналы : 6 каналов
Расположение каналов : Front: L C R, Side: L R, LFE
Частота : 48,0 КГц
Битовая глубина : 16 бит
Метод сжатия : С потерями
Размер потока : 973 Мбайт (13%)
Заголовок : DTS 1536
Язык : German
Default : Нет
Forced : Нет
Аудио #4
Идентификатор : 5
Формат : AC-3
Формат/Информация : Audio Coding 3
Расширение режима : CM (complete main)
Параметр Endianness формата : Big
Идентификатор кодека : A_AC3
Продолжительность : 1 ч. 30 м.
Вид битрейта : Постоянный
Битрейт : 384 Кбит/сек
Каналы : 6 каналов
Расположение каналов : Front: L C R, Side: L R, LFE
Частота : 48,0 КГц
Битовая глубина : 16 бит
Метод сжатия : С потерями
Задержка видео : 1 с. 100 мс.
Размер потока : 247 Мбайт (3%)
Заголовок : 5.1ch 384
Язык : French
Default : Нет
Forced : Нет
Текст #1
Идентификатор : 6
Формат : UTF-8
Идентификатор кодека : S_TEXT/UTF8
Идентификатор кодека/Информация : UTF-8 Plain Text
Заголовок : Русский
Язык : Russian
Default : Да
Forced : Нет
Текст #2
Идентификатор : 7
Формат : VobSub
Идентификатор кодека : S_VOBSUB
Идентификатор кодека/Информация : The same subtitle format used on DVDs
Язык : German
Default : Нет
Forced : Нет
Меню
00:00:00.000 : en:01
00:05:00.233 : en:02
00:10:00.466 : en:03
00:15:10.933 : en:04
00:20:00.833 : en:05
00:25:00.333 : en:06
00:30:00.599 : en:07
00:35:00.266 : en:08
00:40:00.599 : en:09
00:45:00.000 : en:10
00:50:00.233 : en:11
00:55:00.466 : en:12
01:00:10.933 : en:13
01:10:00.833 : en:14
01:15:00.333 : en:15
01:20:00.599 : en:16
01:25:00.266 : en:17

Скриншоты



Скринлист

cd Рип дополнительно залит на ОБЛАКО cd2


Last edited by admin on 2016-03-27 09:20; edited 6 times in total
[Profile] [PM]

admin ®

Gender: Male

Longevity: 6 years 11 months

Posts: 4725

Location: Україна

Post 16-Nov-2012 05:36 (after 2 months 7 days)

[Quote]

Добавлена проф. озвучка
[Profile] [PM]
Display posts:    
Reply to topic

Current time is: 20-Aug 08:09

All times are UTC + 3



You cannot post new topics in this forum
You cannot reply to topics in this forum
You cannot edit your posts in this forum
You cannot delete your posts in this forum
You cannot vote in polls in this forum
You cannot attach files in this forum
You cannot download files in this forum