Мученики науки / e01x16 / Misfits of Science (Берт Бринкерхофф / Burt Brinckerhoff, Майкл Свитцер / Michael Switzer, Бернард МакЭвети / Bernard McEveety) [1985 г., фантастика, комедия, приключения, DVDRip] АО (Алексеев)

Ответить на тему
 
Автор Сообщение

admin ®

Пол: Мужской

Стаж: 4 года 10 месяцев

Сообщений: 4750

Откуда: Україна

Создавать темы 08-Дек-2013 18:06

[Цитировать]

Мученики науки / e01x16 / Misfits of Science
Год выпуска: 1985
Страна: США
Жанр: фантастика, комедия, приключения
Продолжительность: 01:31:45
Перевод: Авторский одноголосый Алексеев
Режиссер: Берт Бринкерхофф / Burt Brinckerhoff, Майкл Свитцер / Michael Switzer, Бернард МакЭвети / Bernard McEveety
В ролях: Dean Paul Martin ... Dr. Billy Hayes (16 episodes, 1985-1988)
Kevin Peter Hall ... Dr. Elvin 'El' Lincoln (16 episodes, 1985-1988)
Mark Thomas Miller ... John 'Johnny B' Bukowski (16 episodes, 1985-1988)
Courteney Cox ... Gloria Dinallo (16 episodes, 1985-1988)
Jennifer Holmes ... Jane Miller (15 episodes, 1985-1988)
Max Wright ... Dick Stetmeyer (15 episodes, 1985-1988)
Diane Cary ... Miss Nance (15 episodes, 1985-1988)
Описание: Пилотная полнометражка одноименного сериала.
Cериал о супергероях, представляюших собой группу молодых мутантов, которые работают на американский мозговой центр, борющийся с преступностью. Элвин может уменьшаться до 8 дюймов (прибл. 20.32 см.), Глория владеет телекинетическимим возможностями, а Джонни Б. может из ладоней испускать молнии. Лидером группы является доктор Хейс.
Серия 1. Эпизод 1. Глубокая заморозка (Пилотная серия).
Доктор Хейс и Линкольн исследуют различные биологические странности для компании «Хьюманидайн». Когда они находят человека, пережившего 50-летнюю заморозку, их слишком энергичный босс выгоняет их с работы и принимает этого «Ледяного человека» с целью проведения над ним военных экспериментов. Оставшись без работы, Хейс и Линкольн решают создать группу «чудаков» (включая 17-ти летнего телекинетика и рок-гитариста, способного стрелять молниями из ладоней) чтобы спасти «Ледяного человека» и прекратить безумные эксперименты своего босса.

Список эпизодов:
01 Deep Freeze (Pilot) 4 октября 1985
02 Your Place or Mayan 18 октября 1985
03 Guess What's Coming to Dinner 25 октября 1985
04 Lost Link 1 ноября 1985
05 Sort of Looking for Gina 8 ноября 1985
06 Sonar... and Yet So Far 15 ноября 1985
07 Steer Crazy 29 ноября 1985
08 Fumble on the One 6 декабря 1985
09 Twin Engines 13 декабря 1985
10 Grand Theft Bunny 27 декабря 1985
11 Grand Elusion 10 января 1986
12 Once Upon a Night 17 января 1986
13 Center of Attention 31 января 1986
14 Against All Oz 7 февраля 1986
15 The Avenging Angel 21 февраля 1986
16 Three Days of the Blender 1988
Релиз

Качество: DVDRip
Формат: MKV
Видео: x264, 1278 кбит/с, 512х384, 23.976 к/с
Аудио 1: Русский (AC3, 2 ch, 192 Кбит/с)
Аудио 2: Английский (AC3, 1 ch, 160 Кбит/с)
Работа над релизом:
Рип найден в сети.
Русская дорожка выкуплена для kosmoaelita.com.
Работа со звуком - sasha20072007



Пример русской озвучки

Дополнительно

Also Known As (AKA)
Argentina Los científicos rebeldes
Spain (Catalan title) Efectes especials
Spain Los rebeldes de la ciencia
Finland IQ
France Superminds
West Germany Die Spezialisten unterwegs
===============================================
Для Украины: рип дополнительно залит в файлохранилище
Для удаления,добавления и извлечения дорожек в mkv используйте бесплатную портативную mkvmerge GUI 6.2.0
Для присоединения потом дорожек к avi воспользуйтесь VirtualDubMod

MediaInfo

Общее
Уникальный идентификатор : 187037129843372362758153982095737309456 (0x8CB60A78EE50EC9881E30DAF12894910)
Полное имя : N:\Misfits of Science e01x16 1985.XviD.DVDRip.Rus.kosmoaelita.mkv
Формат : Matroska
Версия формата : Version 4 / Version 2
Размер файла : 839 Мбайт
Продолжительность : 1 ч. 31 м.
Общий поток : 1278 Кбит/сек
Название фильма : Мученики науки // Misfits of Science e01x16 1985
Дата кодирования : UTC 2013-12-08 14:08:14
Программа кодирования : mkvmerge v6.6.0 ('The Edge Of The In Between') built on Dec 1 2013 17:55:00
Библиотека кодирования : libebml v1.3.0 + libmatroska v1.4.1
Видео
Идентификатор : 1
Формат : MPEG-4 Visual
Профиль формата : Advanced Simple@L5
Параметр BVOP формата : Да
Параметр QPel формата : Нет
Параметр GMC формата : Без точки перехода
Параметр матрицы формата : Default (H.263)
Идентификатор кодека : V_MS/VFW/FOURCC / XVID
Идентификатор кодека/Подсказка : XviD
Продолжительность : 1 ч. 31 м.
Битрейт : 900 Кбит/сек
Ширина : 512 пикселей
Высота : 384 пикселя
Соотношение сторон : 4:3
Режим частоты кадров : Постоянный
Частота кадров : 25,000 кадров/сек
Цветовое пространство : YUV
Субдискретизация насыщенности : 4:2:0
Битовая глубина : 8 бит
Тип развёртки : Прогрессивная
Метод сжатия : С потерями
Бит/(Пиксели*Кадры) : 0.183
Размер потока : 591 Мбайт (70%)
Библиотека кодирования : XviD 1.2.1 (UTC 2008-12-04)
Default : Да
Forced : Нет
Аудио #1
Идентификатор : 2
Формат : AC-3
Формат/Информация : Audio Coding 3
Расширение режима : CM (complete main)
Параметр Endianness формата : Big
Идентификатор кодека : A_AC3
Продолжительность : 1 ч. 31 м.
Вид битрейта : Постоянный
Битрейт : 192 Кбит/сек
Каналы : 2 канала
Расположение каналов : Front: L R
Частота : 48,0 КГц
Битовая глубина : 16 бит
Метод сжатия : С потерями
Размер потока : 126 Мбайт (15%)
Заголовок : Русский АО (Алексеев)
Язык : Russian
Default : Да
Forced : Нет
Аудио #2
Идентификатор : 3
Формат : AC-3
Формат/Информация : Audio Coding 3
Расширение режима : CM (complete main)
Параметр Endianness формата : Big
Идентификатор кодека : A_AC3
Продолжительность : 1 ч. 31 м.
Вид битрейта : Постоянный
Битрейт : 160 Кбит/сек
Каналы : 1 канал
Расположение каналов : Front: C
Частота : 48,0 КГц
Битовая глубина : 16 бит
Метод сжатия : С потерями
Размер потока : 105 Мбайт (13%)
Язык : English
Default : Нет
Forced : Нет

Скриншоты














Последний раз редактировалось: admin (2013-12-09 00:45), всего редактировалось 1 раз
[Профиль] [ЛС]

k-center

Пол: Мужской

Стаж: 4 года 1 месяц

Сообщений: 179

Откуда: Украина

Создавать темы 08-Дек-2013 22:26 (спустя 4 часа)

[Цитировать]

Предлагаю перевод описания фильма:
Cериал о супергероях, представляюших собой группу молодых мутантов, которые работают на американский мозговой центр, борющийся с преступностью. Элвин может уменьшаться до 8 дюймов (прибл. 20.32 см.), Глория владеет телекинетическимим возможностями, а Джонни Б. может из ладоней испускать молнии. Лидером группы является доктор Хейс.
Серия 1. Эпизод 1. Глубокая заморозка (Пилотная серия).
Доктор Хейс и Линкольн исследуют различные биологические странности для компании «Хьюманидайн». Когда они находят человека, пережившего 50-летнюю заморозку, их слишком энергичный босс выгоняет их с работы и принимает этого «Ледяного человека» с целью проведения над ним военных экспериментов. Оставшись без работы, Хейс и Линкольн решают создать группу «чудаков» (включая 17-ти летнего телекинетика и рок-гитариста, способного стрелять молниями из ладоней) чтобы спасти «Ледяного человека» и прекратить безумные эксперименты своего босса.
[Профиль] [ЛС]
Показать сообщения:    
Ответить на тему

Текущее время: 25-Июл 14:16

Часовой пояс: UTC + 3:30



Вы не можете начинать темы
Вы не можете отвечать на сообщения
Вы не можете редактировать свои сообщения
Вы не можете удалять свои сообщения
Вы не можете голосовать в опросах
Вы не можете прикреплять файлы к сообщениям
Вы не можете скачивать файлы