Шторм на 500 миль в час / 500 MPH Storm (Дэниел Луско / Daniel Lusko) [2013 г., Фантастика, боевик, BDRip-1080p] ПМ (SDA-Media)

Reply to topic
 
Author Message

admin ®

Gender: Male

Longevity: 7 years 3 months

Posts: 4813

Post 07-Dec-2013 11:27

[Quote]

Шторм на 500 миль в час / 500 MPH Storm
Год выпуска: 2013
Страна: США, Indy Entertainment, Asylum
Жанр: Фантастика, боевик
Продолжительность: 01:26:51
Перевод: Профессиональный (многоголосый, закадровый) SDA-Media
Режиссер: Дэниел Луско / Daniel Lusko
В ролях:
Casper Van Dien ... Nathan Sims
Michael Beach ... Simon Caprisi
Sarah Lieving ... Mona Sims
Bryan Head ... Johnny Sims
Keith Meriweather ... Captain Wright
Chad Brummett ... Gage
James Lawrence Sicard ... Specialist Tudor (as James Sicard)
Dale O'Malley ... Tech Oxenberg
Hayley Derryberry ... Tech Lewis
Alex Knight ... Sergeant Gentile
Jeremiah Wood ... Science Tech #1 (as Jeremiah Z. Wood)
Lawrence Kruckeberg ... Science Tech #2 (as Lawrence 'Lamb' Kruckeberg)
Stephen Turselli ... Science Tech #3
Gerard Pitpitan ... Science Tech #4
Kim Trujillo ... Reporter
Описание: В результате вышедшего из-под контроля эксперимента на Америку обрушивается несколько разрушительных ураганов. Школьный учитель должен спасти свою семью пока ураганы не объединились в один суперураган, способный стереть США с лица Земли.
Качество: BDRip-1080p
Формат: MKV
Видео: x264, 9292 кбит/с, 1920x1080, 23.976 к/с
Аудио 1: Русский (AC3, 2 ch, 192 Кбит/с)
Аудио 2: Английский (DTS, 6 ch, 1536 Кбит/с)
Работа над релизом:
Сцен-рип найден в юзенете.
Монтаж контейнера - kosmoaelita



Трейлер

Пример русской озвучки

Дополнительно

бюджет $300 000
Also Known As (AKA)
Germany (DVD title) Hypercane
Spain Huracán
France (DVD title) Avis de tempête
France (cable TV title) Supersonic Storm
Hungary Szuperorkán
USA (working title) (English title) Hypercane
===============================================
Для Украины: рип дополнительно залит в файлохранилище
Для удаления,добавления и извлечения дорожек в mkv используйте бесплатную портативную mkvmerge GUI 6.2.0
Для присоединения потом дорожек к avi воспользуйтесь VirtualDubMod

Отзывы

MediaInfo

Общее
Уникальный идентификатор : 195232182043160107403737857878723885855 (0x92E059BDAD6D6343B08411E27B5B7B1F)
Полное имя : N:\500 MPH Storm 2013.x264.BDRip.1080p.Rus.kosmoaelita.mkv
Формат : Matroska
Версия формата : Version 4 / Version 2
Размер файла : 6,67 Гбайт
Продолжительность : 1 ч. 26 м.
Общий поток : 11,0 Мбит/сек
Название фильма : 500 MPH Storm 2013
Дата кодирования : UTC 2013-12-11 00:43:52
Программа кодирования : mkvmerge v6.6.0 ('The Edge Of The In Between') built on Dec 1 2013 17:55:00
Библиотека кодирования : libebml v1.3.0 + libmatroska v1.4.1
Видео
Идентификатор : 1
Формат : AVC
Формат/Информация : Advanced Video Codec
Профиль формата : High@L4.1
Параметр CABAC формата : Да
Параметр ReFrames формата : 4 кадра
Идентификатор кодека : V_MPEG4/ISO/AVC
Продолжительность : 1 ч. 26 м.
Битрейт : 9292 Кбит/сек
Ширина : 1920 пикселей
Высота : 1080 пикселей
Соотношение сторон : 16:9
Режим частоты кадров : Постоянный
Частота кадров : 23,976 кадра/сек
Цветовое пространство : YUV
Субдискретизация насыщенности : 4:2:0
Битовая глубина : 8 бит
Тип развёртки : Прогрессивная
Бит/(Пиксели*Кадры) : 0.187
Размер потока : 5,50 Гбайт (83%)
Библиотека кодирования : x264 core 130 r2273 b3065e6
Настройки программы : cabac=1 / ref=4 / deblock=1:0:0 / analyse=0x3:0x133 / me=umh / subme=7 / psy=1 / psy_rd=1.00:0.00 / mixed_ref=1 / me_range=16 / chroma_me=1 / trellis=1 / 8x8dct=1 / cqm=0 / deadzone=21,11 / fast_pskip=0 / chroma_qp_offset=-2 / threads=18 / lookahead_threads=3 / sliced_threads=0 / nr=0 / decimate=1 / interlaced=0 / bluray_compat=0 / constrained_intra=0 / bframes=3 / b_pyramid=2 / b_adapt=1 / b_bias=0 / direct=1 / weightb=1 / open_gop=0 / weightp=1 / keyint=250 / keyint_min=23 / scenecut=40 / intra_refresh=0 / rc_lookahead=40 / rc=2pass / mbtree=1 / bitrate=9292 / ratetol=1.0 / qcomp=0.60 / qpmin=0 / qpmax=69 / qpstep=4 / cplxblur=20.0 / qblur=0.5 / ip_ratio=1.40 / aq=1:1.00
Язык : English
Default : Да
Forced : Нет
Аудио #1
Идентификатор : 2
Формат : AC-3
Формат/Информация : Audio Coding 3
Расширение режима : CM (complete main)
Параметр Endianness формата : Big
Идентификатор кодека : A_AC3
Продолжительность : 1 ч. 26 м.
Вид битрейта : Постоянный
Битрейт : 192 Кбит/сек
Каналы : 2 канала
Расположение каналов : Front: L R
Частота : 48,0 КГц
Битовая глубина : 16 бит
Метод сжатия : С потерями
Размер потока : 119 Мбайт (2%)
Заголовок : Русский ПМ AC3 2.0 192
Язык : Russian
Default : Да
Forced : Нет
Аудио #2
Идентификатор : 3
Формат : DTS
Формат/Информация : Digital Theater Systems
Режим : 16
Параметр Endianness формата : Big
Идентификатор кодека : A_DTS
Продолжительность : 1 ч. 26 м.
Вид битрейта : Постоянный
Битрейт : 1509 Кбит/сек
Каналы : 6 каналов
Расположение каналов : Front: L C R, Side: L R, LFE
Частота : 48,0 КГц
Битовая глубина : 16 бит
Метод сжатия : С потерями
Размер потока : 937 Мбайт (14%)
Заголовок : English
Язык : English
Default : Нет
Forced : Нет
Меню
00:00:00.000 : en:00:00:00.000
00:12:29.999 : en:00:12:29.999
00:24:59.998 : en:00:24:59.998
00:37:29.997 : en:00:37:29.997
00:49:59.997 : en:00:49:59.997
01:02:29.996 : en:01:02:29.996
01:14:59.995 : en:01:14:59.995

Скриншоты






Last edited by admin on 2013-12-11 03:54; edited 5 times in total
[Profile] [PM]

admin ®

Gender: Male

Longevity: 7 years 3 months

Posts: 4813

Post 07-Dec-2013 11:31 (after 4 minutes)

[Quote]

Сцен-рип
The Asylum — американская киностудия и дистрибьютор, специализирующаяся на низкобюджетных direct-to-video фильмах.
Direct-to-video (англ. прямиком на видео) — устоявшееся англоязычное выражение, используемое для обозначения категории дешёвых либо неудачных с точки зрения прокатных перспектив кинокартин.
[Profile] [PM]

Guest

Gender: Unknown

Post 07-Dec-2013 11:53 (after 21 minute)

[Quote]

Три-четыре года назад нравилось следить за их новинками на рутрэкере. Фильмы типа "Терминаторы" ошибочно скачивались по 70-100 тысяч раз (!!, я даже делал специальные таблицы со статистикой), и именно поэтому админы потом вынуждены были сделать раздел "Грайндхаус", поскольку от тех, кто по тупости скачал не тот фильм, было очень много воплей и жалоб.))
 

Guest

Gender: Unknown

Post 07-Dec-2013 13:56 (after 2 hours 2 minutes)

[Quote]

4422Три-четыре года назад нравилось следить за их новинками на рутрэкере. Фильмы типа "Терминаторы" ошибочно скачивались по 70-100 тысяч раз (!!, я даже делал специальные таблицы со статистикой), и именно поэтому админы потом вынуждены были сделать раздел "Грайндхаус", поскольку от тех, кто по тупости скачал не тот фильм, было очень много воплей и жалоб.))
ad ad ad
 

Guest

Gender: Unknown

Post 07-Dec-2013 14:03 (after 7 minutes)

[Quote]

http://rutracker.org/forum/viewtopic.php?t=1828619
.torrent скачан: 70532 раза
И 70 страниц комментариев. На некоторые их фильмы было по сто страниц, и темы закрывали. Субъективно: Терминатор-4 намного слабее эсайлумских "Терминаторов".
Весёлое было время. В те дни интернет-синефилы ещё не развалились на несколько трэкеров и не ругались.))
 

Guest

Gender: Unknown

Post 08-Dec-2013 17:50 (after 1 day 3 hours)

[Quote]

Фильмы The Asylum, как и фильмы телеканала SyFy, хоть они и малобюджетны, обладают своим шармом. Это - бренд, по своему. Их любопытно смотреть. Да, это не шедевры. Да, на разок сойдёт. Но кто ещё такое возьмётся снять. Просто это перерождение старого доброго B-movie, которое снималось ранее в 50-70 годах, и которого достаточно переведено.
Эволюция движется вперёд, просто приобрела чуть иные черты.
Раз есть фильмы - значит есть потребители, иначе давным-давно вылетели бы в трубу студии, снимающее такое кино.
 

$Shorox

Gender: Male

Longevity: 6 years 11 months

Posts: 1888

Post 08-Dec-2013 19:13 (after 1 hour 23 minutes)

[Quote]

DEICIDE,
Я как-то давно накололся с фильмом от этой фирмы. Тогда не знал об этой конторе. Скачал c файлообменника "2012:Сверхновая" вместо "2012". Долго ждал когда начнёт монах в колокол бить.
[Profile] [PM]

Guest

Gender: Unknown

Post 08-Dec-2013 20:17 (after 1 hour 3 minutes)

[Quote]

4446DEICIDE,
Я как-то давно накололся с фильмом от этой фирмы. Тогда не знал об этой конторе. Скачал c файлообменника "2012:Сверхновая" вместо "2012". Долго ждал когда начнёт монах в колокол бить.
И в этом вся суть претензий к Asylum? Так в этом вины Asylum вообще нет. Мало ли кто чего там, на файлообменнике, напишет.
Будьте внимательнее, все таки названия их фильмов с более бюджетными совпадают на 95%. Но как понял. вы это и сами уже давно поняли bs
Да к тому же есть же скрины и обложка. Обычно на сайтах, где выкладывают на файлообменники, это указывают.
Без таких студий жить будет скучно в ожидании действительно классных фильмов.
 

$Shorox

Gender: Male

Longevity: 6 years 11 months

Posts: 1888

Post 08-Dec-2013 23:49 (after 3 hours)

[Quote]

DEICIDE,
Я просто вспомнил как по TV рекламу фильма "2012" с монахом показывали, с я этот фильм с binmovie в лучшем качестве скачал, а там вместо монаха с молотом, девка с ноутбуком на каблуках-шпильках из Мексики пешком топала весь фильм в США, чтобы мир спасти.
[Profile] [PM]
Display posts:    
Reply to topic

Current time is: 08-Dec 03:16

All times are UTC + 3



You cannot post new topics in this forum
You cannot reply to topics in this forum
You cannot edit your posts in this forum
You cannot delete your posts in this forum
You cannot vote in polls in this forum
You cannot attach files in this forum
You cannot download files in this forum