Тайны Ниро Вульфа / A Nero Wolfe Mystery Сезон: 1-2 + фильм / Серии: 1-23 из 23 (Тимоти Хаттон, Джон Л’Экуаер, Холли Дэйл и другие) [2000-2002, США, детектив, DVDRip] (ПМ)

Reply to topic
DL-List and Torrent activity
Size:  14.41 GB   |    Registered:  4 years 7 months   |    Completed:  0 times

Seeder not seen: 3 years 11 months

 
   
 
 
 
Author Message

Faer ®

Gender: Male

Longevity: 4 years 9 months

Posts: 349

Location: Сербия

Post 15-Feb-2015 08:28

[Quote]

Тайны Ниро Вульфа / A Nero Wolfe Mystery Сезон: 1-2 + фильм
Страна: США
Жанр: детектив
Год выпуска: 2002
Продолжительность: 23 х 00:44:52
Перевод: Профессиональный (многоголосый)
Cубтитры: нет
Режиссер: Тимоти Хаттон, Джон Л’Экуаер, Холли Дэйл и другие
В ролях: Тимоти Хаттон, Мори Чайкин, Колин Фокс, Билл Смитрович, Р.Д. Рейд, Конрад Данн, Джеймс Толкан, Роберт Бокстэл, Кари Матчетт, Дэвид Шурманн
Описание: Экранизация произведений Рекса Стаута о знаменитых детективах Ниро Вульфе и Арчи Гудвине. Великолепные актеры, точно воссозданная атмосфера Нью-Йорка 40-60 годов, практически стопроцентное соответствие сюжету оригинальных книг, - все это американский телесериал "Тайны Ниро Вульфа". Именно в этой экранизации удалось максимально приблизиться к идеалу, рассказать истории о приключениях Ниро Вульфа и Арчи Гудвина так, как, наверное, их хотел бы увидеть автор.
Качество видео: DVDRip
Формат видео: AVI
Видео: DivX, 640х480, 4:3, 23.976fps, 1100 Кбит/с
Аудио: MP3, 48.0кГц, 192 Кбит/с, стерео (руский)
Аудио 2: MP3, 48.0кГц, 192 Кбит/с, стерео (английский)

MediaInfo

Общее
Полное имя : [TNGroup]_A_Nero_Wolfe_Mystery_S2_02_[ru_en]_[DVDRip_HWP].avi
Формат : AVI
Формат/Информация : Audio Video Interleave
Размер файла : 481 Мбайт
Продолжительность : 44 м.
Общий поток : 1498 Кбит/сек
Программа кодирования : VirtualDubModRus 1.5.10.2 (build 2540/release)
Библиотека кодирования : VirtualDubMod build 2540/release
Видео
Идентификатор : 0
Формат : MPEG-4 Visual
Профиль формата : Advanced Simple@L5
Параметр BVOP формата : 1
Параметр QPel формата : Нет
Параметр GMC формата : Без точки перехода
Параметр матрицы формата : Default (H.263)
Идентификатор кодека : DX50
Идентификатор кодека/Подсказка : DivX 5
Продолжительность : 44 м.
Битрейт : 1100 Кбит/сек
Ширина : 640 пикселей
Высота : 480 пикселей
Соотношение сторон : 4:3
Частота кадров : 23,976 кадра/сек
Цветовое пространство : YUV
Субдискретизация насыщенности : 4:2:0
Битовая глубина : 8 бит
Тип развёртки : Прогрессивная
Метод сжатия : С потерями
Бит/(Пиксели*Кадры) : 0.149
Размер потока : 353 Мбайт (73%)
Библиотека кодирования : XviD 64
Аудио #1
Идентификатор : 1
Формат : MPEG Audio
Версия формата : Version 1
Профиль формата : Layer 3
Режим : Joint stereo
Расширение режима : MS Stereo
Идентификатор кодека : 55
Идентификатор кодека/Подсказка : MP3
Продолжительность : 44 м.
Вид битрейта : Постоянный
Битрейт : 192 Кбит/сек
Каналы : 2 канала
Частота : 48,0 КГц
Метод сжатия : С потерями
Размер потока : 61,6 Мбайт (13%)
Выравнивание : Соединение по промежуткам
Продолжительность промежутка : 42 мс. (1,00 видеокадр)
Время предзагрузки промежутка : 504 мс.
Заголовок : ru \ [TNGroup - treckera.net]
Аудио #2
Идентификатор : 2
Формат : MPEG Audio
Версия формата : Version 1
Профиль формата : Layer 3
Режим : Joint stereo
Расширение режима : MS Stereo
Идентификатор кодека : 55
Идентификатор кодека/Подсказка : MP3
Продолжительность : 44 м.
Вид битрейта : Постоянный
Битрейт : 192 Кбит/сек
Каналы : 2 канала
Частота : 48,0 КГц
Метод сжатия : С потерями
Размер потока : 61,6 Мбайт (13%)
Выравнивание : Соединение по промежуткам
Продолжительность промежутка : 42 мс. (1,00 видеокадр)
Время предзагрузки промежутка : 504 мс.
Заголовок : en

Скриншоты



Данные о фильме

Золотые пауки / The Golden Spiders: A Nero Wolfe Mystery
Страна: США
Жанр: детектив
Год выпуска: 2000
Продолжительность: 01:33:06
Перевод: Профессиональный (многоголосый)
Cубтитры: нет
Режиссер: Билл Дьюк
В ролях: Мори Чайкин, Тимоти Хаттон, Билл Смитрович, Мими Кузык, Колин Фокс, Сол Рубинек, Ларисса Ласкин, Гэри Райнеке, Бо Старр, Элизабет Браун
Описание: Легендарный частный сыщик Ниро Вульф, гурман и любитель орхидей, раскрыл немало хитроумных преступлений, даже не выходя из дома. Для этого у него есть «глаза и уши» — верный и проницательный помощник Арчи Гудвин. Но дело «Золотых пауков» оказалось одним из самых сложных и запутанных за всю их совместную карьеру.
Таинственный убийца безжалостно и неумолимо уничтожает всех, кто хоть что-то знает о женских серьгах в форме золотых пауков. И каждый раз за рулем шикарного автомобиля, под колесами которого гибнут все новые жертвы, оказываются совершенно разные люди.
Качество видео: DVDRip
Формат видео: AVI
Видео: DivX, 640х480, 4:3, 23.976fps, 1100 Кбит/с
Аудио: MP3, 48.0кГц, 192 Кбит/с, стерео (руский)
Аудио 2: MP3, 48.0кГц, 192 Кбит/с, стерео (английский)

MediaInfo

Общее
Полное имя : F:\Архив\Сериалы\[TNGroup]_A_Nero_Wolfe_Mystery_S1_S2_Movie\[TNGroup]_A_Nero_Wolfe_Mystery_Movie_[ru_en]_[DVDRip_HWP].avi
Формат : AVI
Формат/Информация : Audio Video Interleave
Размер файла : 861 Мбайт
Продолжительность : 1 ч. 33 м.
Общий поток : 1293 Кбит/сек
Программа кодирования : VirtualDubModRus 1.5.10.2 (build 2540/release)
Библиотека кодирования : VirtualDubMod build 2540/release
Видео
Идентификатор : 0
Формат : MPEG-4 Visual
Профиль формата : Advanced Simple@L5
Параметр BVOP формата : 1
Параметр QPel формата : Нет
Параметр GMC формата : Без точки перехода
Параметр матрицы формата : Default (H.263)
Идентификатор кодека : DX50
Идентификатор кодека/Подсказка : DivX 5
Продолжительность : 1 ч. 33 м.
Битрейт : 895 Кбит/сек
Ширина : 640 пикселей
Высота : 480 пикселей
Соотношение сторон : 4:3
Частота кадров : 23,976 кадра/сек
Цветовое пространство : YUV
Субдискретизация насыщенности : 4:2:0
Битовая глубина : 8 бит
Тип развёртки : Прогрессивная
Метод сжатия : С потерями
Бит/(Пиксели*Кадры) : 0.121
Размер потока : 596 Мбайт (69%)
Библиотека кодирования : XviD 64
Аудио #1
Идентификатор : 1
Формат : MPEG Audio
Версия формата : Version 1
Профиль формата : Layer 3
Режим : Joint stereo
Расширение режима : MS Stereo
Идентификатор кодека : 55
Идентификатор кодека/Подсказка : MP3
Продолжительность : 1 ч. 33 м.
Вид битрейта : Постоянный
Битрейт : 192 Кбит/сек
Каналы : 2 канала
Частота : 48,0 КГц
Метод сжатия : С потерями
Размер потока : 128 Мбайт (15%)
Выравнивание : Соединение по промежуткам
Продолжительность промежутка : 42 мс. (1,00 видеокадр)
Время предзагрузки промежутка : 504 мс.
Заголовок : ru \ [TNGroup - treckera.net]
Аудио #2
Идентификатор : 2
Формат : MPEG Audio
Версия формата : Version 1
Профиль формата : Layer 3
Режим : Joint stereo
Расширение режима : MS Stereo
Идентификатор кодека : 55
Идентификатор кодека/Подсказка : MP3
Продолжительность : 1 ч. 33 м.
Вид битрейта : Постоянный
Битрейт : 192 Кбит/сек
Каналы : 2 канала
Частота : 48,0 КГц
Метод сжатия : С потерями
Размер потока : 128 Мбайт (15%)
Выравнивание : Соединение по промежуткам
Продолжительность промежутка : 42 мс. (1,00 видеокадр)
Время предзагрузки промежутка : 504 мс.
Заголовок : en

Скриншоты



[TNGroup]_A_Nero_Wolfe_Mystery_S1_S2_Movie.torrent
Torrent: Registered [ 2015-02-15 08:28 ]

Download .torrent

Download

75 KB

Status: checked
Completed: 0 times
Size: 14.41 GB
 
[Profile] [PM]
Quick Reply

Name:

            
Heads necessary to send messages to enable JavaScript
Display posts:    
Reply to topic

Current time is: 14-Oct 09:34

All times are UTC + 3



You can post new topics in this forum
You can reply to topics in this forum
You cannot edit your posts in this forum
You cannot delete your posts in this forum
You cannot vote in polls in this forum
You cannot attach files in this forum
You can download files in this forum