Гор / Бандиты с планеты Гор / Гор вне закона (Дилогия) / Gor / Outlaw of Gor (John 'Bud' Cardos, Fritz Kiersch) [1987, США, фантастика, фэнтези, боевик, VHSRip] АО (c VHS)

Reply to topic
DL-List and Torrent activity
Size:  1.6 GB   |    Registered:  5 years 4 months   |    Completed:  4 times

Seeder not seen: 2 years 7 months

 
   
 
 
 
Author Message

admin ®

Gender: Male

Longevity: 7 years 7 months

Posts: 4811

Post 02-Dec-2014 17:25

[Quote]

Дилогия
Гор / Gor
Страна: США, Cannon Films
Жанр: фантастика, фэнтези, боевик
Год выпуска: 1987
Продолжительность: 01:34:49
Перевод: Авторский (одноголосый)
Режиссер: Фриц Кирш / Fritz Kiersch
В ролях:
Urbano Barberini ... Tarl Cabot
Rebecca Ferratti ... Talena
Jack Palance ... Xenos
Paul L. Smith ... Surbus
Oliver Reed ... Sarm
Larry Taylor ... King Marlenus
Graham Clarke ... Drusus
Janine Denison ... Brandy
Donna Denton ... Queen Lara
Jenifer Oltman ... Tafa (as Jennifer Oltmann)
Martina Brockschmidt ... Dorna
Anne Power ... Beverly (as Ann Power)
Arnold Vosloo ... Norman
Chris du Plessis ... Sarsam
Ivan Kruger ... Sarm's Rider
Описание: Первая часть экранизации романов Джона Нормана. Американский профессор Тэрл Кэбот оказывается на планете Гор — близнеце нашей Земли, вращающейся вокруг Солнца по той же орбите, но с противоположной стороны…
Качество: VHSRip
Формат: MKV
Видео: DivX, 892 кбит/с, 400x304, 23.976 к/с
Аудио 1: Русский АО (c VHS)(AC3, 2 ch, 192 Кбит/с)
Аудио 2: Английский (МР3, 2 ch, 128 Кбит/с)
Работа над релизом:
Видеоряд найден на Карагарге
Синхронизация русской дорожки - kosmoaelita
Длинные муз. фрагменты заменены более качеств. с англ. дорожки
Звуковая дорожка с русским переводом оцифрована с личной видеокассеты agaraghh
Gor 1987: VHSRIP kosmoaelita vs. SATRIP rutracker



Пример русской озвучки

Дополнительно

Also Known As (AKA) Brazil Gor E os Guerreiros Selvagens
Finland Gor - tuhon tähti
France Gor
USA (complete title) John Norman's Gor
West Germany (video title) Gor
================================================
Для Украины: рип и оригинальный ДВД дополнительно залиты в файлохранилище
Для удаления,добавления и извлечения дорожек в mkv используйте бесплатную портативную mkvmerge GUI 7.1.0
Для присоединения потом дорожек к avi воспользуйтесь VirtualDubMod

Отзывы

Медиа-инфо

Общее
Уникальный идентификатор : 212609036974752508713786553096306574920 (0x9FF302D5DB6D170F8FC8B7A1495A4648)
Полное имя : F:\Gor Outlaw Of Gor 1987-89 VHSRip kosmoaelita\Gor 1987.DivX.VHSRip.Rus.kosmoaelita.mkv
Формат : Matroska
Версия формата : Version 4 / Version 2
Размер файла : 823 Мбайт
Продолжительность : 1 ч. 34 м.
Режим общего битрейта : Переменный
Общий поток : 1218 Кбит/сек
Название фильма : Gor 1987.DivX.VHSRip
Дата кодирования : UTC 2014-12-02 01:08:55
Программа кодирования : mkvmerge v6.6.0 ('The Edge Of The In Between') built on Dec 1 2013 17:55:00
Библиотека кодирования : libebml v1.3.0 + libmatroska v1.4.1
Видео
Идентификатор : 1
Формат : MPEG-4 Visual
Параметр BVOP формата : Да
Параметр QPel формата : Нет
Параметр GMC формата : Без точки перехода
Параметр матрицы формата : Default (H.263)
Идентификатор кодека : V_MS/VFW/FOURCC / DX50
Идентификатор кодека/Подсказка : DivX 5
Продолжительность : 1 ч. 34 м.
Битрейт : 892 Кбит/сек
Ширина : 400 пикселей
Высота : 304 пикселя
Соотношение сторон : 4:3
Режим частоты кадров : Постоянный
Частота кадров : 23,976 кадра/сек
Цветовое пространство : YUV
Субдискретизация насыщенности : 4:2:0
Битовая глубина : 8 бит
Тип развёртки : Прогрессивная
Метод сжатия : С потерями
Бит/(Пиксели*Кадры) : 0.306
Размер потока : 603 Мбайт (73%)
Заголовок : kosmoaelita
Библиотека кодирования : DivX 5.2.1 (WaffleDay) (UTC 2004-09-08)
Default : Да
Forced : Нет
Аудио #1
Идентификатор : 2
Формат : AC-3
Формат/Информация : Audio Coding 3
Расширение режима : CM (complete main)
Параметр Endianness формата : Big
Идентификатор кодека : A_AC3
Продолжительность : 1 ч. 34 м.
Вид битрейта : Постоянный
Битрейт : 192 Кбит/сек
Каналы : 2 канала
Расположение каналов : Front: L R
Частота : 48,0 КГц
Битовая глубина : 16 бит
Метод сжатия : С потерями
Размер потока : 130 Мбайт (16%)
Заголовок : Русский АО (с VHS)
Язык : Russian
Default : Да
Forced : Нет
Аудио #2
Идентификатор : 3
Формат : MPEG Audio
Версия формата : Version 1
Профиль формата : Layer 3
Режим : Joint stereo
Расширение режима : MS Stereo
Идентификатор кодека : A_MPEG/L3
Идентификатор кодека/Подсказка : MP3
Продолжительность : 1 ч. 34 м.
Вид битрейта : Переменный
Битрейт : 109 Кбит/сек
Номинальный битрейт : 128 Кбит/сек
Каналы : 2 канала
Частота : 48,0 КГц
Метод сжатия : С потерями
Задержка видео : 48 мс.
Размер потока : 74,0 Мбайт (9%)
Библиотека кодирования : LAME3.97
Настройки программы : -m j -V 4 -q 2 -lowpass 17 --abr 128
Язык : English
Default : Нет
Forced : Нет

Скриншоты





Скринлист

================================================================================================================
=================================================================================================================
================================================================================================================

Бандиты с планеты Гор / Гор вне закона / Outlaw of Gor
Страна: США, Cannon Films, Breton Film Productions
Жанр: фантастика, фэнтези, боевик
Год выпуска: 1988
Продолжительность: 01:29:05
Перевод: Авторский (одноголосый)
Режиссер: John 'Bud' Cardos / Джон ’Бад’ Кардос
В ролях:
Urbano Barberini ... Prof. Tarl Cabot
Rebecca Ferratti ... Talena (as Rebecca Ferrati)
Jack Palance ... Xenos
Donna Denton ... Queen Lara
Russel Savadier ... Watney Smith
Nigel Chipps ... Midget Hup
Alex Heyns ... Elder
Tullio Moneta ... Ost (as Tulio Moneta)
Larry Taylor ... Marlenus
Michael Brunner ... Targus
Michelle Clarke ... Vera
Christobel d'Ortez ... Alicia
Natasha Piotrowski ... Lady Tima
Nicole De Gruchy ... Leather Lady
Martina Brockschmidt ... Barbarian Woman
Описание: Когда Землянин все-таки возвращается на планету Гор, ему приходится опять бороться с жесточайшей тиранией. На этот раз союзников куда меньше…
Качество: VHSRip
Формат: MKV
Видео: DivX, 892 кбит/с, 400x304, 29.97 к/с
Аудио 1: Русский АО (c VHS) (AC3, 2 ch, 192 Кбит/с)
Аудио 2: Английский (МР3, 2 ch, 128 Кбит/с)
Работа над релизом:
Видеоряд найден на Карагарге
Синхронизация русской дорожки - kosmoaelita
Длинные муз. фрагменты заменены более качеств. с англ. дорожки
Outlaw Of Gor 1988: VHSRIP kosmoaelita vs. VHSRIP rutracker



Пример русской озвучки

Дополнительно

рейтинг MPAA детям до 13 лет просмотр не желателен
Also Known As (AKA)
Switzerland (French title) Gor 2
France Les bannis de Gor
Greece (video title) Gor No 2
Hungary Gor 2.
Italy Ritorno a Gor
USA (new title) Gor II
USA (short title) Outlaw of Gor
West Germany Der Geächtete von Gor
World-wide (TV title) (English title) Outlaw

Отзывы

Медиа-инфо

Общее
Уникальный идентификатор : 172466699707900033947690625194700129199 (0x81BFE0CDA203D44996BFAA3A009543AF)
Полное имя : F:\Gor Outlaw Of Gor 1987-89 VHSRip kosmoaelita\Outlaw Of Gor 1989.DivX.VHSRip.Rus.kosmoaelita.mkv
Формат : Matroska
Версия формата : Version 4 / Version 2
Размер файла : 816 Мбайт
Продолжительность : 1 ч. 29 м.
Режим общего битрейта : Переменный
Общий поток : 1281 Кбит/сек
Название фильма : Бандиты с планеты Гор / Outlaw Of Gor (1989)
Дата кодирования : UTC 2014-12-02 02:02:11
Программа кодирования : mkvmerge v6.6.0 ('The Edge Of The In Between') built on Dec 1 2013 17:55:00
Библиотека кодирования : libebml v1.3.0 + libmatroska v1.4.1
Видео
Идентификатор : 1
Формат : MPEG-4 Visual
Параметр BVOP формата : Да
Параметр QPel формата : Нет
Параметр GMC формата : Без точки перехода
Параметр матрицы формата : Default (H.263)
Идентификатор кодека : V_MS/VFW/FOURCC / DX50
Идентификатор кодека/Подсказка : DivX 5
Продолжительность : 1 ч. 29 м.
Ширина : 400 пикселей
Высота : 304 пикселя
Соотношение сторон : 4:3
Режим частоты кадров : Постоянный
Частота кадров : 23,976 кадра/сек
Цветовое пространство : YUV
Субдискретизация насыщенности : 4:2:0
Битовая глубина : 8 бит
Тип развёртки : Прогрессивная
Метод сжатия : С потерями
Заголовок : kosmoaelita
Библиотека кодирования : DivX 5.2.1 (WaffleDay) (UTC 2004-09-08)
Default : Да
Forced : Нет
Аудио #1
Идентификатор : 2
Формат : AC-3
Формат/Информация : Audio Coding 3
Расширение режима : CM (complete main)
Параметр Endianness формата : Big
Идентификатор кодека : A_AC3
Продолжительность : 1 ч. 29 м.
Вид битрейта : Постоянный
Битрейт : 192 Кбит/сек
Каналы : 2 канала
Расположение каналов : Front: L R
Частота : 48,0 КГц
Битовая глубина : 16 бит
Метод сжатия : С потерями
Размер потока : 122 Мбайт (15%)
Заголовок : Русский АО (с VHS)
Язык : Russian
Default : Да
Forced : Нет
Аудио #2
Идентификатор : 3
Формат : MPEG Audio
Версия формата : Version 1
Профиль формата : Layer 3
Режим : Joint stereo
Расширение режима : MS Stereo
Идентификатор кодека : A_MPEG/L3
Идентификатор кодека/Подсказка : MP3
Продолжительность : 1 ч. 29 м.
Вид битрейта : Переменный
Каналы : 2 канала
Частота : 48,0 КГц
Метод сжатия : С потерями
Язык : English
Default : Нет
Forced : Нет

Скриншоты







Скринлист

cd Рип дополнительно залит на mail.ru cd2
Gor Outlaw Of Gor 1987-89 VHSRip kosmoaelita.torrent
Torrent: Registered [ 2014-12-02 17:25 ]

Download .torrent

Download

64 KB

Status: checked
Completed: 4 times
Size: 1.6 GB
 


Last edited by admin on 2014-12-02 17:47; edited 8 times in total
[Profile] [PM]

admin ®

Gender: Male

Longevity: 7 years 7 months

Posts: 4811

Post 02-Dec-2014 17:30 (after 4 minutes)

[Quote]

Gor 1987: VHSRIP kosmoaelita vs. SATRIP rutracker
Outlaw Of Gor 1988: VHSRIP kosmoaelita vs. VHSRIP rutracker
[Profile] [PM]

Трамвай-фильм

Gender: Male

Longevity: 5 years 8 months

Posts: 1825

Location: Россия

Post 02-Dec-2014 23:07 (after 5 hours)

[Quote]

Второй фильм еле выдержал 10 минут. Мне бы его лет в 11 посмотреть, ну уж жууууууууууутко детский.
[Profile] [PM]

admin ®

Gender: Male

Longevity: 7 years 7 months

Posts: 4811

Post 02-Dec-2014 23:24 (after 17 minutes)

[Quote]

Тоска по видеосалонам за 1руб (кстати во Львове столько такси стоило проехать весь город на ГАЗ-24-10 смайлик+
[Profile] [PM]
Display posts:    
Reply to topic

Current time is: 04-Apr 15:54

All times are UTC + 3



You cannot post new topics in this forum
You cannot reply to topics in this forum
You cannot edit your posts in this forum
You cannot delete your posts in this forum
You cannot vote in polls in this forum
You cannot attach files in this forum
You can download files in this forum