Маре, наша история любви / Maré, Nossa História de Amor / Another Love Story (Люсия Мурат / Lúcia Murat) [2007 г., мюзикл, драма, SATRip] ДБ

Reply to topic
 
Author Message

$Shorox ®

Gender: Male

Longevity: 6 years 9 months

Posts: 1888

Post 09-Dec-2013 01:48

[Quote]

Маре, наша история любви / Maré, Nossa História de Amor / Another Love Story
Год выпуска: 2007
Страна: Бразилия, Франция, Уругвай
Жанр: мюзикл, драма
Продолжительность: 1:43:10
Перевод: Профессиональный Дубляж
Режиссер: Люсия Мурат / Lúcia Murat
В ролях: Винисиус Д’Блэк / Vinícius D'Black , Моника Соареш / Monique Soares, Рафаэль Мариано / Rafael Mariano, Элиза Люсинда / Elisa Lucinda, Кристина Лаго / Cristina Lago, Бабу Сантана / Babu Santana, Jefchander Lucas, Анжо Лопес / Anjo Lopes, Мариса Орт/ Marisa Orth, Флавио Баураки / Flavio Bauraqui
Описание: Джонатан и Аналидия полюбили друг друга с первого взгляда. Они занимаются в одной танцевальной группе, но живут в разных частях знаменитого района Маре, где среди бразильских трущоб музыка и танцы существуют бок о бок с криминальными реалиями. Учительница танцев предлагает местным ребятам поставить на современный лад вечную историю про Ромео и Джульетту.
Доп. информация: Чистая запись со спутника без обработки.
Качество: SATRip
Формат: MPEG-TS
Видео кодек: AVC
Аудио кодек: MPEG Audio
Видео: AVC, 720x576, 4:3, 25.000 fps
Аудио: MPEG Audio, 128 Kbps, 2 channels, 48.0 KHz


Трейлер

Медиа.инфо

General
ID : 0 (0x0)
Complete name : F:Маре, наша история любви (Люсия Мурат)(2007).ts
Format : MPEG-TS
File size : 1.61 GiB
Duration : 1h 43mn
Overall bit rate mode : Variable
Overall bit rate : 2 236 Kbps
Video
ID : 301 (0x12D)
Menu ID : 1 (0x1)
Format : AVC
Format/Info : Advanced Video Codec
Format profile : Main@L3.0
Format settings, CABAC : Yes
Format settings, ReFrames : 3 frames
Format settings, GOP : M=4, N=24
Codec ID : 27
Duration : 1h 43mn
Bit rate : 1 996 Kbps
Width : 720 pixels
Height : 576 pixels
Display aspect ratio : 4:3
Frame rate : 25.000 fps
Standard : Component
Color space : YUV
Chroma subsampling : 4:2:0
Bit depth : 8 bits
Scan type : Interlaced
Scan order : Top Field First
Bits/(Pixel*Frame) : 0.193
Stream size : 1.44 GiB (89%)
Color primaries : BT.601 PAL
Transfer characteristics : BT.470 System B, BT.470 System G
Matrix coefficients : BT.601
Audio
ID : 302 (0x12E)
Menu ID : 1 (0x1)
Format : MPEG Audio
Format version : Version 1
Format profile : Layer 2
Codec ID : 3
Duration : 1h 43mn
Bit rate mode : Constant
Bit rate : 128 Kbps
Channel count : 2 channels
Sampling rate : 48.0 KHz
Compression mode : Lossy
Stream size : 94.5 MiB (6%)

Скриншоты



Файл залит на mail.ru
[Profile] [PM]

Guest

Gender: Unknown

Post 26-Aug-2014 09:06 (after 8 months 17 days)

[Quote]

супер фантастика bb
 

$Shorox ®

Gender: Male

Longevity: 6 years 9 months

Posts: 1888

Post 26-Aug-2014 11:55 (after 2 hours 49 minutes)

[Quote]

Slavnus Spacedust,
Раздел называется "Разное". Фильм кстати в Рунете впервые появился на kosmoaelita.com.
[Profile] [PM]
Quick Reply

Name:

            
Heads necessary to send messages to enable JavaScript
Display posts:    
Reply to topic

Current time is: 14-Oct 09:53

All times are UTC + 3



You cannot post new topics in this forum
You can reply to topics in this forum
You cannot edit your posts in this forum
You cannot delete your posts in this forum
You cannot vote in polls in this forum
You cannot attach files in this forum
You can download files in this forum