Молчаливое бегство / Silent Running (Дуглас Трамбулл) [1972 г., Фантастика, BDRip-720р] ПМ, ПД (Sci-Fi), АО (Дольский)

Reply to topic
 
Author Message

Guest ®

Gender: Unknown

Post 07-Nov-2012 04:45

[Quote]

Молчаливое бегство / Silent Running
Год выпуска: 1972
Страна: США
Жанр: Фантастика
Продолжительность: 1:29:36
Перевод: Профессиональный (двухголосый)
Режиссер: Дуглас Трамбулл
В ролях: Брюс Дерн, Клифф Поттс, Рон Рифкин, Джесси Винт, Марк Персонс, Стивен Браун, Шерил Спаркс, Ларри Вайзенхант, Джозеф Кампанелла, Рой Энджел
Описание: Экологическая научно-фантастическая драма. Все леса на Земле погибли, так что теперь деревья выращивают в космосе. Приглядывающий за огромной космической плантацией герой получает приказ с Земли уничтожить оранжерею. Поняв, что не сможет выполнить приказ и не сможет убедить трех своих коллег помочь ему спасти растения, он решает действовать сам и не допустить катастрофы
Качество: BDRip-720р
Формат: MKV
Видео: x264, 5079 Кбит/с, 1280х694, 23.976 к/с
Аудио 1: Русский ПМ (AC3, 2 ch, 192 Кбит/с)
Аудио 1: Русский Sci-Fi (AC3, 2 ch, 192 Кбит/с)
Аудио 1: Русский Дольский (AC3, 2 ch, 192 Кбит/с)
Аудио 2: Английский (AC3, 2 ch, 192 Кбит/с)
Субтитры : Английские (


Релиз

Автор рипа: MySilu. Русский звук (Многоголосый и Авторский переводы), от тов. motel, обработка и синхронизация тов. Diablo. Инициатор раздачи ув. Тарантиныч... (Спасибо за труд всем, без кого эта раздача была-бы невозможна!)
P.S. На сайте "Кинопоиск", в связях с этим фильмом значится "Темная звезда" (Джона Карпентера) 1974...
Ваш рейтинг, вам решать..... смайлик+
Внимание! Фильм не похож на "Хроники Риддика", мяса и спецэффектов не ждите!
Рекомендую для коллекции, поклонникам жанра...
Для Украины: рип и оригинальный ДВД дополнительно залиты в файлохранилище
Для удаления и добавления дорожек в mkv используйте бесплатную mkvmerge GUI 5.80

Дополнительно

слоган «Amazing companions on an incredible adventure... that journeys beyond imagination!»
бюджет $1 100 000
Also Known As (AKA)
Et la terre survivra Canada (French title) / France (alternative spelling)
2002: la seconda odissea Italy
Corrida Silenciosa Brazil
Den tysta flykten Sweden
Flukt i verdensrommet Norway (TV title)
Hiljainen pako Finland
Lautlos im Weltraum West Germany
Naves misteriosas Spain
O Cosmonauta Perdido Portugal
Peripeteia sto diastima Greece (transliterated ISO-LATIN-1 title)
Running Silent USA (working title)
Silent Running France
Taistelu avaruudessa Finland
Tihi beg Serbia
Verdens sidste have Denmark (imdb display title)

Отзывы

На этот фильм, в паре с этим: 2001 год: Космическая одиссея
Джон Карпентер, снял пародию Темная звезда
P.S. Все выше перечисленные фильмы, обошлись без специальных эффектов (см. год выпуска)

Рецензия

The film fan
рецензии (18)оценкидрузьяфильмызвёзды
Люди, о чём же вы думаете?!!
Чудесный фильм о том, что возможно может произойти в будущем.
На Земле уже не живут. На американской космической станции «Железная долина» проводят исследования четверо человек(так немного, ибо функцией данной станции является сохранение некоторых видов растений и животных, содержащихся в огромных полусферах, и участия человек почти не требуется — роботы в состоянии делать почти всю основную работу). Среди этих людей есть один «странный» (по мнению других)человек — Фриман (имя говорящее), единственный, кто хорошо понимает, как важна их работа. Он ухаживает за растениями и общается с животными, любит есть свежие фрукты с деревьев, в то время как остальные едят «сушёную дрянь», играют в карты, гоняют на маленьких машинках — средствах передвижения по гигантской станции. Однажды люди на станции получают приказ об уничтожении полусфер со всем живым. Фриман считает это сумасшествием, ведь его мечта вернутся на Земля, снова заселив её животными и растениями…
Возможно я и описала не очень, но фильм очень интересен, заставляет задуматься. Актёры играют эмоционально, заставляя расплакаться, а ещё очень забавно выглядят роботы, при всей своей «металличности», испытывающие чувства. Трогательные песни. Стоит заметить, что поведение коллег Фримана изображает, как мне кажется, отношение всех(или почти всех) людей к Земле — мы не её хозяева, мы лишь один из видов живых существ и мы не должны считать себя вправе хозяйничать на ней. Мы не должны отбирать право других созданий жить на ней в заведённом порядке, жить не уродуя мир и истребляя виды.
Фильм заставляющий задуматься, что мы, люди, делаем с планетой
-----------------------------------------------------------------------

MediaInfo

Molchalivoe.begstvo.1972.x264.BDRip.720p.mkv
Формат : Matroska
Версия формата : Version 2
Размер файла : 3,66 Гбайт
Продолжительность : 1 ч. 29 м.
Общий поток : 5850 Кбит/сек
Название фильма : Silent.Running.1972..(MySilu-motel-Diablo-Tarantinych)
Дата кодирования : UTC 2012-07-11 00:49:14
Программа кодирования : mkvmerge v5.6.0 ('Kenya Kane') built on May 27 2012 16:44:04
Библиотека кодирования : libebml v1.2.3 + libmatroska v1.3.0
Видео
Идентификатор : 1
Формат : AVC
Формат/Информация : Advanced Video Codec
Профиль формата : High@L4.1
Параметр CABAC формата : Да
Параметр ReFrames формата : 8 кадров
Идентификатор кодека : V_MPEG4/ISO/AVC
Продолжительность : 1 ч. 29 м.
Битрейт : 5079 Кбит/сек
Ширина : 1280 пикселей
Высота : 694 пикселя
Соотношение сторон : 1,85:1
Частота кадров : 23,976 кадра/сек
Цветовое пространство : YUV
Субдискретизация насыщенности : 4:2:0
Битовая глубина : 8 бит
Тип развёртки : Прогрессивная
Бит/(Пиксели*Кадры) : 0.238
Размер потока : 3,11 Гбайт (85%)
Заголовок : Silent Running...(1972)...Молчаливое бегство
Библиотека кодирования : x264 core 119 r2106 07efeb4
Настройки программы : cabac=1 / ref=8 / deblock=1:-2:-2 / analyse=0x3:0x133 / me=umh / subme=9 / psy=1 / psy_rd=1.20:0.20 / mixed_ref=1 / me_range=16 / chroma_me=1 / trellis=2 / 8x8dct=1 / cqm=0 / deadzone=21,11 / fast_pskip=1 / chroma_qp_offset=-3 / threads=12 / sliced_threads=0 / nr=0 / decimate=0 / interlaced=0 / bluray_compat=0 / constrained_intra=0 / bframes=3 / b_pyramid=2 / b_adapt=2 / b_bias=0 / direct=3 / weightb=1 / open_gop=0 / weightp=2 / keyint=250 / keyint_min=2 / scenecut=40 / intra_refresh=0 / rc_lookahead=60 / rc=2pass / mbtree=1 / bitrate=5079 / ratetol=1.0 / qcomp=0.60 / qpmin=10 / qpmax=51 / qpstep=4 / cplxblur=20.0 / qblur=0.5 / vbv_maxrate=38000 / vbv_bufsize=38000 / nal_hrd=none / ip_ratio=1.40 / aq=1:1.00
Язык : English
Default : Да
Forced : Нет
Аудио #1
Идентификатор : 2
Формат : AC-3
Формат/Информация : Audio Coding 3
Расширение режима : CM (complete main)
Параметр Endianness формата : Big
Идентификатор кодека : A_AC3
Продолжительность : 1 ч. 29 м.
Вид битрейта : Постоянный
Битрейт : 192 Кбит/сек
Каналы : 2 канала
Расположение каналов : Front: L R
Частота : 48,0 КГц
Битовая глубина : 16 бит
Метод сжатия : С потерями
Размер потока : 123 Мбайт (3%)
Заголовок : Профессиональный многоголосый
Язык : Russian
Default : Да
Forced : Нет
Аудио #2
Идентификатор : 3
Формат : AC-3
Формат/Информация : Audio Coding 3
Расширение режима : CM (complete main)
Параметр Endianness формата : Big
Идентификатор кодека : A_AC3
Продолжительность : 1 ч. 29 м.
Вид битрейта : Постоянный
Битрейт : 192 Кбит/сек
Каналы : 2 канала
Расположение каналов : Front: L R
Частота : 48,0 КГц
Битовая глубина : 16 бит
Метод сжатия : С потерями
Размер потока : 123 Мбайт (3%)
Заголовок : Профессиональный двухголосый [Sci-Fi]
Язык : Russian
Default : Нет
Forced : Нет
Аудио #3
Идентификатор : 4
Формат : AC-3
Формат/Информация : Audio Coding 3
Расширение режима : CM (complete main)
Параметр Endianness формата : Big
Идентификатор кодека : A_AC3
Продолжительность : 1 ч. 29 м.
Вид битрейта : Постоянный
Битрейт : 192 Кбит/сек
Каналы : 2 канала
Расположение каналов : Front: L R
Частота : 48,0 КГц
Битовая глубина : 16 бит
Метод сжатия : С потерями
Размер потока : 123 Мбайт (3%)
Заголовок : Авторский перевод [Андрей Дольский]
Язык : Russian
Default : Нет
Forced : Нет
Аудио #4
Идентификатор : 5
Формат : AC-3
Формат/Информация : Audio Coding 3
Расширение режима : CM (complete main)
Параметр Endianness формата : Big
Идентификатор кодека : A_AC3
Продолжительность : 1 ч. 29 м.
Вид битрейта : Постоянный
Битрейт : 192 Кбит/сек
Каналы : 2 канала
Расположение каналов : Front: L R
Частота : 48,0 КГц
Битовая глубина : 16 бит
Метод сжатия : С потерями
Размер потока : 123 Мбайт (3%)
Заголовок : Английский
Язык : English
Default : Нет
Forced : Нет
Текст
Идентификатор : 6
Формат : UTF-8
Идентификатор кодека : S_TEXT/UTF8
Идентификатор кодека/Информация : UTF-8 Plain Text
Заголовок : Английские
Язык : English
Default : Да
Forced : Нет
Меню
00:00:00.000 : en:00:00:00.000
00:08:08.029 : en:00:08:08.029
00:12:48.434 : en:00:12:48.434
00:19:06.604 : en:00:19:06.604
00:29:57.921 : en:00:29:57.921
00:37:50.560 : en:00:37:50.560
00:43:16.594 : en:00:43:16.594
00:49:25.963 : en:00:49:25.963
00:53:28.497 : en:00:53:28.497
01:04:50.220 : en:01:04:50.220
01:09:42.553 : en:01:09:42.553
01:17:25.558 : en:01:17:25.558
01:22:11.802 : en:01:22:11.802

Скриншоты



cd Рип дополнительно залит на mail.ru cd2
 
Quick Reply

Name:

            
Heads necessary to send messages to enable JavaScript
Display posts:    
Reply to topic

Current time is: 16-Dec 05:05

All times are UTC + 3



You cannot post new topics in this forum
You can reply to topics in this forum
You cannot edit your posts in this forum
You cannot delete your posts in this forum
You cannot vote in polls in this forum
You cannot attach files in this forum
You cannot download files in this forum