Стреляющие ангелы / Strelyayushchiye angely (Владимир Штерянов) [1994 г., Фантастика, VHSRip]

Reply to topic
 
Author Message

admin ®

Gender: Male

Longevity: 8 years

Posts: 4794

Post 25-May-2014 14:42

[Quote]

Стреляющие ангелы / Strelyayushchiye angely
Год выпуска: 1994
Страна: Болгария, Alexintrade Establishment, Россия, Команда
Жанр: Фантастика
Продолжительность: 01:35:30
Перевод: Не требуется
Режиссер: Владимир Штерянов
В ролях: Руперт Эверетт, Албена Чакырова, Златина Фенерджиева, Степан Михалков, Константин Райкин, Армен Джигарханян, Алексей Петренко, Вячеслав Разбегаев, Джеф Олсон, Фёдор Добронравов, Алексей Якубов, Владимир Большов, Фёдор Бондарчук, Игорь Муругов, Александр Лебедев
Описание: Фильм-сказка - фантастическая, смешная и страшная... Жил-был когда-то на земле сумасшедший скульптор. Всю свою жизнь он ваял скульптуру Бога, но статуя была мертва. Потому что чего-то ей не хватало. А не хватало магического глаза, который однажды, неизвестно откуда, все-таки появился...
Качество: VHSRip
Формат: AVI
Видео: xvid, 886 кбит/с, 512x368, 25 к/с
Аудио: Русский (MP3, 2 ch, 128 Кбит/с)
Работа над релизом:

Оцифровка VHS (личный архив) и получение VHSRip alenavova



Дополнительно

Also Known As (AKA)
(original title) Strelyayushchiye angely
Bulgaria (Bulgarian title) Стрелящи ангели
Russia Стреляющие ангелы
Europe (English title) Shooting Angels
================================================
Для Украины: рип и оригинальный ДВД дополнительно залиты в файлохранилище
Для удаления,добавления и извлечения дорожек в mkv используйте бесплатную портативную mkvmerge GUI 6.6.0
Для присоединения потом дорожек к avi воспользуйтесь VirtualDubMod

Отзывы

Эх, капельку бы таланта режиссеру и получился бы "Город Зеро".
А так - будто наловили хороших актеров в эпизоды (кто по студии мимо пробегал) и сказали: гуляй, ребята, кто во что горазд.
Правду говорят, что хороший режиссер из плохих актеров выжмет хорошее кино, а плохой режиссер и из хороших актеров хорошее кино не сделает.
Как Эверетт-то сюда попал? понимаю, тоже пробегал мимо, но он обычно тщательно выбирает.
Интересно, ему хоть заплатили?
За раздачу спасибо, это в любом случае - раритет.
------------------------------------------------------
Огромное спасибо!!! Искал это фильм больше 10 лет! Самый редкий фильм из всех российских после 1991 года. Решпект!
--------------------------------------
Это фильм болгарский. Наши- только часть всех занятых в фильме актёров.
Всё остальное- киностудии, сценарий, режиссёр- Болгария. Сам рассказ, по которому снят фильм- болгарскких писателей. Так что...кинопоиск не прав. На первом месте должна стоять страна Болгария, а не Россия. Спасибо за редкую картину.

Рецензия

Смешная сказка?
Мы все живём не в информационном вакууме, и понимаем, что снимать фильмы через пару лет после развала СССР, было одновременно и легко и трудно. Легко, потому что цензурные шоры не сдерживали полёт фантазии, а тяжело, потому что фантазия, не подкреплённая рублём, — всего лишь химера. В 1994 году в России вышло всего 3 фильма в жанре фантастики. 20-ти минутная короткометражка «Венецианское зеркало» и два полнометражных фильма: «Полигон один» (В. Родченко) и, собственно, «Стреляющие ангелы» (В. Штерянов).
Эти ленты, не смотря на абсолютно разный сюжет, во многом похожи. Валерий Родченко — совсем не новичёк на поприще режессуры — успел снять интересный боевик «Два долгих гудка в тумане» (1980г.) и очень лёгкий и позитивный фильм «Фантастические приключения Карика и Вали» (1987г.) Для Владимира Штырянова «Стреляющие ангелы» стали дебютом. Я сопоставил два этих фильма и двух режиссёров по одной-единственной причине: их фильмы — это своеобразное «видеопопурри» на тему «забугорных» фильмов. Только Родченко сделал акцент на приключениях, а Штырянов — на мистике. И в том и в другом случае получилось не очень…
Присутствие в кадре таких именитых актёров как Армен Джигарханян, Алексей Петренко, Константин Райкин «подогревает» зрительский интерес, но лишь на время присутсвия «мэтров» в кадре. Без сомнения, все эти эпизоды — украшение фильма, но к сожалению, они выглядят разрозненно. А весь фильм целиком — это набор клипов на модные в тот период темы, взятые из более-менее интересных зарубежных фильмов. Оттого многоие шутки и гэги — совсем не смешны, потому что вырваны из контекста. Финал в какой-то степени реабилитирует чувство недоверия, но не до конца…

MediaInfo

Общее
Полное имя : H:\Streljajushie.angely.1994.XviD.VHSRip.by.alenavova.avi
Формат : AVI
Формат/Информация : Audio Video Interleave
Размер файла : 699 Мбайт
Продолжительность : 1 ч. 35 м.
Общий поток : 1024 Кбит/сек
Название фильма : Стреляющие ангелы
Режиссёр : alenavova
Жанр : Fantasy
Программа кодирования : FairUse Wizard - http://fairusewizard.com
Формат оригинала/Имя : Movie
Правообладатель : VHSRip by alenavova
Примечание : 24.01.12
Видео
Идентификатор : 0
Формат : MPEG-4 Visual
Профиль формата : Advanced Simple@L5
Параметр BVOP формата : 1
Параметр QPel формата : Нет
Параметр GMC формата : Без точки перехода
Параметр матрицы формата : Default (MPEG)
Режим смешивания : Сжатый битовый поток
Идентификатор кодека : XVID
Идентификатор кодека/Подсказка : XviD
Продолжительность : 1 ч. 35 м.
Битрейт : 886 Кбит/сек
Ширина : 512 пикселей
Высота : 368 пикселей
Соотношение сторон : 1,391
Частота кадров : 25,000 кадров/сек
Цветовое пространство : YUV
Субдискретизация насыщенности : 4:2:0
Битовая глубина : 8 бит
Тип развёртки : Прогрессивная
Метод сжатия : С потерями
Бит/(Пиксели*Кадры) : 0.188
Размер потока : 605 Мбайт (87%)
Библиотека кодирования : XviD 1.2.0.dev47 (UTC 2006-11-01)
Аудио
Идентификатор : 1
Формат : MPEG Audio
Версия формата : Version 1
Профиль формата : Layer 3
Режим : Joint stereo
Идентификатор кодека : 55
Идентификатор кодека/Подсказка : MP3
Продолжительность : 1 ч. 35 м.
Вид битрейта : Постоянный
Битрейт : 128 Кбит/сек
Каналы : 2 канала
Частота : 48,0 КГц
Метод сжатия : С потерями
Размер потока : 87,4 Мбайт (13%)
Выравнивание : Соединение по промежуткам
Продолжительность промежутка : 40 мс. (1,00 видеокадр)
Время предзагрузки промежутка : 504 мс.
Библиотека кодирования : LAME3.97
Настройки программы : -m j -V 4 -q 2 -lowpass 17 -b 128

Скриншоты










cd Рип дополнительно залит на mail.ru cd2
[Profile] [PM]

admin ®

Gender: Male

Longevity: 8 years

Posts: 4794

Post 25-May-2014 14:46 (after 3 minutes)

[Quote]

Сетевой торрент
[Profile] [PM]
Display posts:    
Reply to topic

Current time is: 01-Oct 22:52

All times are UTC + 3



You cannot post new topics in this forum
You cannot reply to topics in this forum
You cannot edit your posts in this forum
You cannot delete your posts in this forum
You cannot vote in polls in this forum
You cannot attach files in this forum
You cannot download files in this forum