Серебряные иглы в небе / Silver Needle in the Sky Rocky Jones, Space Ranger (s01e17-19)(Холингсворт Морс / Hollingsworth Morse) [1954 г., Фантастика, DVDRip] АО (Трамвай-фильм)

Reply to topic
 
Author Message

admin ®

Gender: Male

Longevity: 7 years 10 months

Posts: 4799

Post 13-May-2014 09:05

[Quote]

Серебряные иглы в небе / Silver Needle in the Sky Rocky Jones, Space Ranger (s01e17-19)
Год выпуска: 1954
Страна: США, Roland Reed Productions
Жанр: Фантастика
Продолжительность: 01:12:52
Перевод: Авторский одноголосый Трамвай-фильм
Режиссер: Холингсворт Морс / Hollingsworth Morse
В ролях:
Richard Crane ... Rocky Jones (archive footage)
Sally Mansfield ... Vena Ray (archive footage)
Maurice Cass ... Prof. Newton (unconfirmed)
Rest of cast listed alphabetically:
Rudolph Anders ... Dr. Loran (archive footage)
Scotty Beckett ... Winky (archive footage)
Rand Brooks ... Ranger Andrews (archive footage)
Harry Lauter ... Atlasande (archive footage)
Dayton Lummis ... Dr. Hillary Tyson (archive footage)
Robert Lyden ... Bobby (archive footage)
Charles Meredith ... Secretary of Space Drake (archive footage)
Patsy Parsons ... Cleolanta (archive footage)
Mickey Simpson ... Magni (archive footage)
Описание: Компиляция нескольких 17-19 эпизодов сериала "Rocky Jones, Space Ranger" 1954г.
Отважный Рокки Джонс и его команда отпарвляются на космостанцию XO-7, где будет проведена Межпланетная мирная конференция, и куда надо доставить делегацию от землян, во главе с доктором Тайсоном. Однако, сюзеренша планеты Офишес имеет свои планы по этому поводу

Качество: DVDRip
Формат: MKV
Видео: xvid, 1212 кбит/с, 640x480, 29.97 к/с
Аудио 1: Русский АО (Трамвай-фильм) (MP3, 2 ch, 128 Кбит/с)
Аудио 2: Английский (MP3, 2 ch, 128 Кбит/с)
Работа над релизом:
Перевод на слух и озвучка - Трамвай-фильм

[kp][/kp]

Пример русской озвуччки

Список эпизодов и компиляций Рокки Джонса

Многие эпизоды которого поблочно потом с сокращениями компилированы в полнометражки:
Beyond the Curtain of Space: Chapter I S1, Ep1 -10 Apr. 1954
Beyond the Curtain of Space: Chapter II S1, Ep2 - 2 Mar. 1954
Beyond the Curtain of Space: Chapter III S1, Ep3- 9 Mar. 1954
(Полнометражка Beyond the Moon)
Bobby's Comet: Chapter I S1, Ep4 - 28 Aug. 1954
Bobby's Comet: Chapter II S1, Ep5 - 13 Apr. 1954
Bobby's Comet: Chapter III S1, Ep6 - 20 Apr. 1954
Escape Into Space S1, Ep7 - 1 May 1954
Rocky's Odyssey: Chapter I S1, Ep8 - 26 Sep. 1954
Rocky's Odyssey: Chapter II S1, Ep9 - 23 Mar. 1954
Rocky's Odyssey: Chapter III S1, Ep10 - 30 Mar. 1954
(Полнометражка The Gypsy Moon)
The Pirates of Prah: Chapter I S1, Ep11 - 8 May 1954
The Pirates of Prah: Chapter II S1, Ep12 - 11 May 1954
The Pirates of Prah: Chapter III S1, Ep13 - 18 May 1954
The Forbidden Moon: Chapter I S1, Ep14 - 19 Jun. 1954
The Forbidden Moon: Chapter II S1, Ep15 - 22 Jun. 1954
The Forbidden Moon: Chapter III S1, Ep16 - 29 Jun. 1954
Silver Needle in the Sky: Chapter I S1, Ep17 - 29 May 1954
Silver Needle in the Sky: Chapter II S1, Ep18 - 1 Jul. 1954
Silver Needle in the Sky: Chapter III S1, Ep19 - 8 Jul. 1954
(Полнометражка Silver Needle in the Sky)
Kip's Private War S1, Ep20 - 31 Jul. 1954
Crash of the Moons: Chapter I S1, Ep21 - 10 Jul. 1954
Crash of Moons: Chapter II S1, Ep22 - 17 Jul. 1954
Crash of Moons: Chapter III S1, Ep23 - 24 Jul. 1954
(Полнометражка Crash of Moons)
Blast-Off: Chapter I S1, Ep24 - 14 Aug. 1954
Blast Off: Chapter II S1, Ep25 - 10 Aug. 1954
Blast Off: Chapter III S1, Ep26 - 17 Aug. 1954
The Cold Sun: Chapter I S1, Ep27 - 17 Oct. 1954
The Cold Sun: Chapter II S1, Ep28 - 31 Aug. 1954
The Cold Sun: Chapter III S1, Ep29 - 7 Sep. 1954
Inferno in Space: Chapter I S1, Ep30 - 30 Oct. 1954
Inferno in Space: Chapter II S1, Ep31 - 21 Sep. 1954
Inferno in Space: Chapter III S1, Ep32 - 28 Sep. 1954
Vena and the Darnamo S1, Ep33 - 6 Nov. 1954
Out of This World: Chapter I S1, Ep34 - 20 Nov. 1954
Out of This World: Chapter II S1, Ep35 - 19 Oct. 1954
Out of This World: Chapter III S1, Ep36 - 26 Oct. 1954
The Trial of Rocky Jones: Chapter I S1, Ep37 - 11 Dec. 1954
The Trial of Rocky Jones: Chapter II S1, Ep38 - 9 Nov. 1954
The Trial of Rocky Jones: Chapter III S1, Ep39 - 16 Nov. 1954

Дополнительно

Rocky Jones and chums transport some VIPs to an outer space conference that is being held on a space station. The evil empress Cleolanta has different ideas and kidnaps the passengers in order to have leverage in having two of her imprisoned spies freed. Jones and the gang have to come to the rescue.
This is another in a series of 50's films that were created by knocking together various episodes of the 'Rocky Jones: Space Ranger' TV series. I've seen another one, Crash of Moons, and all I can say is at least Silver Needle in the Sky isn't as terrible as that one. But that isn't really saying a lot to be perfectly honest because this is also a very dull effort indeed. I think it would only be fair to say that these were very much products of their time and will do very little for anyone but the most committed fan of 50's sci-fi. On the positive side, the recurring villainous queen Cleolanta is quite a good character and the daft models are quite good fun. But other than that, I'm struggling.
================================================
Для Украины: рип и оригинальный ДВД дополнительно залиты в файлохранилище
Рип дополнительно залит на mail.ru
Для удаления,добавления и извлечения дорожек в mkv используйте бесплатную портативную mkvmerge GUI 6.6.0
Для присоединения потом дорожек к avi воспользуйтесь VirtualDubMod

MediaInfo

Общее
Уникальный идентификатор : 204887768983286482732143225554289492986 (0x9A23F2EE8ABA231595E4B9A07F5F03FA)
Полное имя : N:\Silver Needle in the Sky (1954).mkv
Формат : Matroska
Версия формата : Version 2
Размер файла : 781 Мбайт
Продолжительность : 1 ч. 12 м.
Общий поток : 1498 Кбит/сек
Дата кодирования : UTC 2014-05-11 13:03:34
Программа кодирования : mkvmerge v4.6.0 ('Still Crazy After All These Years') сборка от Mar 10 2011 02:50:32
Библиотека кодирования : libebml v1.2.0 + libmatroska v1.1.0
Видео
Идентификатор : 1
Формат : MPEG-4 Visual
Профиль формата : Simple@L3
Параметр BVOP формата : Нет
Параметр QPel формата : Нет
Параметр GMC формата : Без точки перехода
Параметр матрицы формата : Default (H.263)
Идентификатор кодека : V_MS/VFW/FOURCC / XVID
Идентификатор кодека/Подсказка : XviD
Продолжительность : 1 ч. 12 м.
Битрейт : 1212 Кбит/сек
Ширина : 640 пикселей
Высота : 480 пикселей
Соотношение сторон : 4:3
Режим частоты кадров : Постоянный
Частота кадров : 29,970 кадров/сек
Частота кадров в оригинале : 29,000 кадров/сек
Цветовое пространство : YUV
Субдискретизация насыщенности : 4:2:0
Битовая глубина : 8 бит
Тип развёртки : Прогрессивная
Метод сжатия : С потерями
Бит/(Пиксели*Кадры) : 0.132
Размер потока : 632 Мбайт (81%)
Библиотека кодирования : XviD 1.2.1 (UTC 2008-12-04)
Default : Да
Forced : Нет
Аудио #1
Идентификатор : 2
Формат : MPEG Audio
Версия формата : Version 1
Профиль формата : Layer 3
Режим : Joint stereo
Расширение режима : MS Stereo
Режим смешивания : Header stripping
Идентификатор кодека : A_MPEG/L3
Идентификатор кодека/Подсказка : MP3
Продолжительность : 1 ч. 12 м.
Вид битрейта : Постоянный
Битрейт : 128 Кбит/сек
Каналы : 2 канала
Частота : 44,1 КГц
Метод сжатия : С потерями
Размер потока : 66,7 Мбайт (9%)
Заголовок : Оригинал
Библиотека кодирования : LAME3.98.2
Язык : English
Default : Нет
Forced : Нет
Аудио #2
Идентификатор : 3
Формат : MPEG Audio
Версия формата : Version 1
Профиль формата : Layer 3
Режим смешивания : Header stripping
Идентификатор кодека : A_MPEG/L3
Идентификатор кодека/Подсказка : MP3
Продолжительность : 1 ч. 12 м.
Вид битрейта : Постоянный
Битрейт : 128 Кбит/сек
Каналы : 2 канала
Частота : 44,1 КГц
Метод сжатия : С потерями
Размер потока : 66,7 Мбайт (9%)
Заголовок : Перевод
Библиотека кодирования : LAME3.99r
Настройки программы : -m s -V 4 -q 3 -lowpass 17 -b 128
Язык : Russian
Default : Да
Forced : Да

Скриншоты










cd Рип дополнительно залит на mail.ru cd2


Last edited by admin on 2016-05-03 16:15; edited 7 times in total
[Profile] [PM]

admin ®

Gender: Male

Longevity: 7 years 10 months

Posts: 4799

Post 13-May-2014 09:07 (after 1 minute)

[Quote]

Сетевой торрент
[Profile] [PM]
Display posts:    
Reply to topic

Current time is: 06-Jul 15:29

All times are UTC + 3



You cannot post new topics in this forum
You cannot reply to topics in this forum
You cannot edit your posts in this forum
You cannot delete your posts in this forum
You cannot vote in polls in this forum
You cannot attach files in this forum
You cannot download files in this forum