Бак Роджерс ( 1-12 серии из 12 ) / Buck Rogers (Форд Биби / Ford Beebe, Сол А. Гудкайнд / Saul A. Goodkind) [1939 г., Фантастика, приключения, DVDRip] ПМ

Reply to topic
 
Author Message

admin ®

Gender: Male

Longevity: 7 years 3 months

Posts: 4813

Post 05-Oct-2012 23:50

[Quote]

Бак Роджерс ( 1-12 серии из 12 ) / Buck Rogers
Год выпуска: 1939
Страна: США, Universal Pictures
Жанр: фантастика, фэнтези, приключения, семейный
Продолжительность: 3:57:41
Перевод: Профессиональный (многоголосый, закадровый)
Режиссер: Форд Биби / Ford Beebe, Сол А. Гудкайнд / Saul A. Goodkind
В ролях: Ларри "Бастер" Краббе, Констанс Мур, Джеки Моран, Джек Малхолл, Энтони Уорд
Описание: Пилот Бак Роджерс с юным пассажиром во время заполярного полета терпят крушение в горах и подвергаются воздействию неизвестного газа. Очнувшись через 500 лет, они узнают, что миром правит тиран Убийца Кейн. Вместе с принцем Толленом они пытаются освободить Землю от власти Кейна.
Качество: DVDRip
Формат: AVI
Видео: XviD, 1120 кбит/с, 576x432
Аудио 1: Русский (МР3, 2 ch, 112 Кбит/с)


Релиз

Для Украины: рип и оригинальный ДВД дополнительно залиты в файлохранилище
Для удаления и добавления дорожек в mkv используйте бесплатную mkvmerge GUI 5.80

Дополнительно

слоган «Original cartoon strip by Dick Calkins and Phil Nolan - Based on the Buck Rogers newspaper feature owned and copyrighted by John F. Dille Co.»
Also Known As (AKA)
A Guerra do Ano 2000 Portugal (imdb display title)
Buck Rogers France
Buck Rogers Conquers the Universe USA (video title)
Buck Rogers: Destination Saturn USA (recut version)
O polemos ton planiton Greece (transliterated ISO-LATIN-1 title)

Рецензия

MediaInfo

Общее
Полное имя : F:\Buck Rogers - Бак Роджерс\Buck Rogers - Бак Роджерс.avi
Формат : AVI
Формат/Информация : Audio Video Interleave
Профиль формата : OpenDML
Размер файла : 2,07 Гбайт
Продолжительность : 3 ч. 57 м.
Общий поток : 1244 Кбит/сек
Программа кодирования : VirtualDubMod 1.5.4.1 (build 2178/release)
Библиотека кодирования : VirtualDubMod build 2178/release
Видео
Идентификатор : 0
Формат : MPEG-4 Visual
Профиль формата : Advanced Simple@L5
Параметр BVOP формата : 1
Параметр QPel формата : Нет
Параметр GMC формата : Без точки перехода
Параметр матрицы формата : Выборочная
Идентификатор кодека : XVID
Идентификатор кодека/Подсказка : XviD
Продолжительность : 3 ч. 57 м.
Битрейт : 1120 Кбит/сек
Ширина : 576 пикселей
Высота : 432 пикселя
Соотношение сторон : 4:3
Частота кадров : 23,976 кадра/сек
Цветовое пространство : YUV
Субдискретизация насыщенности : 4:2:0
Битовая глубина : 8 бит
Тип развёртки : Прогрессивная
Метод сжатия : С потерями
Бит/(Пиксели*Кадры) : 0.188
Размер потока : 1,86 Гбайт (90%)
Библиотека кодирования : XviD 1.2.0.dev47 (UTC 2006-11-01)
Аудио
Идентификатор : 1
Формат : MPEG Audio
Версия формата : Version 1
Профиль формата : Layer 3
Режим : Joint stereo
Расширение режима : MS Stereo
Идентификатор кодека : 55
Идентификатор кодека/Подсказка : MP3
Продолжительность : 3 ч. 57 м.
Вид битрейта : Постоянный
Битрейт : 112 Кбит/сек
Каналы : 2 канала
Частота : 44,1 КГц
Метод сжатия : С потерями
Размер потока : 190 Мбайт (9%)
Выравнивание : Разделение по промежуткам
Продолжительность промежутка : 42 мс. (1,00 видеокадр)
Время предзагрузки промежутка : 500 мс.
Библиотека кодирования : LAME3.97
Настройки программы : -m j -V 4 -q 2 -lowpass 15.6 -b 112

Скриншоты





Last edited by admin on 2014-03-02 14:55; edited 1 time in total
[Profile] [PM]

Guest

Gender: Unknown

Post 02-Mar-2014 14:04 (after 1 year 4 months)

[Quote]

давно в коллекции,но тем не менее....
 

Guest

Gender: Unknown

Post 12-Jun-2014 21:11 (after 3 months 10 days)

[Quote]

Сильно сокращенная до полнометражной версия
http://kosmoaelita.com/viewtopic.php?t=1259
 
Quick Reply

Name:

            
Heads necessary to send messages to enable JavaScript
Display posts:    
Reply to topic

Current time is: 16-Dec 05:06

All times are UTC + 3



You cannot post new topics in this forum
You can reply to topics in this forum
You cannot edit your posts in this forum
You cannot delete your posts in this forum
You cannot vote in polls in this forum
You cannot attach files in this forum
You cannot download files in this forum