Доктор Кто и Далеки / Dr. Who and the Daleks (Гордон Флеминг) [1965 г., фантастика,, DVDRip-AVC] ЛО (RollingHead), СТ (Чемпион)

Topic locked
 
Author Message

admin ®

Gender: Male

Longevity: 7 years 3 months

Posts: 4813

Post 13-Oct-2012 00:03

[Quote]

Доктор Кто и Далеки / Dr. Who and the Daleks
Релиз - kosmoaelita. com
Год выпуска: 1965
Страна: Великобритания, AARU Productions
Жанр: фантастика,
Продолжительность: 01:19:34
Перевод: ЛО (RollingHead)
Субтитры Чемпион
Режиссер: Гордон Флеминг
В ролях: Питер Кашинг, Рой Кастл, Дженни Линден, Роберта Тоуви, Бэрри Ингэм, Майкл Коулз, Ивонн Энтробус, Джеффри Тун, Джон Баун, Марк Петерсен
Описание: Доктор Кто случайно активирует свое новое изобретение «Tardis» (Time And Relative Dimensions In Space)-машину времени, сделанную под полицейскую телефонную будку. Вместе со своими внучкой и племянницей Сюзан и Барбарой, а также их другом Яном, он переносится сквозь время на планету Скаро. Она опустошена ядерной войной. Вскоре путешественники во времени обнаруживают металлический город, где мирная раса «талов» находится в повиновении со стороны других обитателей планеты, роботов-мутантов «далеков»…
Первый фильм о далеках. Второй - Вторжение Далеков на Землю / Daleks' Invasion Earth: 2150 A.D.
Релиз

Качество: DVDRip-AVC
Формат: MKV
Видео: x264, 1827 кбит/с, 712x432@1018x432, 25 к/с, crf=19
Аудио 1: Русский (RollingHead) (AC3, 2 ch, 192 Кбит/с)
Аудио 2: Английский (AC3, 2 ch, 192 Кбит/с)
Аудио 3: Английский (Комментарии) (AC3, 2 ch, 192 Кбит/с)
Субтитры : Русские (Чемпион), английские


Трейлер

Релиз

Рип с ДВД5 - sasha20072007
Озвучка - RollingHead
Субтитры - Чемпион
Для Украины: рип и оригинальный ДВД дополнительно залиты в файлохранилище
Для удаления,добавления и извлечения дорожек в mkv используйте бесплатную портативную mkvmerge GUI 6.2.0
Для присоединения потом дорожек к avi воспользуйтесь VirtualDubMod

Дополнительно

слоган «The Wildest Space Adventure on... or off the Earth!»
Also Known As (AKA)
Doctor Who and the Daleks Australia (TV title)
Doktor Who i Dalekowie Poland
Dokutâ Hû in Kaijin Dareku no Wakusei Japan (imdb display title)
Dr Who contre les Daleks France
Dr. Who y los Daleks Spain
O Dr. Who kai oi Dalekoi Greece (video title)

Рецензия

Не совсем тот Доктор
Как я уже говорил, «Доктор Кто» — это не просто культурное явление. Это целая Вселенная, с собственной историей, особыми законами, множеством миров и персонажей. И неканоническими версиями.
Фильм «Доктор Кто и далеки» — одна из них. На первый взгляд все очень похоже. Есть Доктор, есть его внучка (кстати, на момент съемок фильма зрители видели только одного Первого Доктора в исполнении Уильяма Хартнелла) и спутники, есть ТАРДИС (больше внутри, чем снаружи и похожая на телефонную будку). И есть далеки. Те самые злобные пришельцы, причудливого вида, прослывшие самыми опасными монстрами во Вселенной. Вроде бы все есть… но чего-то важного нет. Нет специфического обаяния, которое отличало «Доктора Кто» от сонма других подобных историй. Даже главная тема искажена настолько, что ее не узнать. И далеки, убивающие врагов… паром!
В общем, действие, увы, временами напоминает фарс или сотню других фантастических ужастиков\боевиков о вторжении пришельцев, снимаемых в то время. Пожалуй, единственная причина почему ее стоит посмотреть — актер, играющий полицейского Тома, одного из спутников Доктора, позднее сыгравший Уилфа в четвертом сезоне н. ш.
4 из 10

MediaInfo

Общее
Уникальный идентификатор : 219865196340427915049196607002487981552 (0xA5687F1CFCBEDC86A5FB87B75AAA85F0)
Полное имя : F:\Доктор Кто и Далеки 1965.x264.DVDRip.(AVC).kosmoaelita.com.mkv
Формат : Matroska
Версия формата : Version 4 / Version 2
Размер файла : 1,36 Гбайт
Продолжительность : 1 ч. 19 м.
Общий поток : 2452 Кбит/сек
Название фильма : Dr. Who and the Daleks / Доктор Кто и Далеки / 1965 / rip by sasha20072007 (2012-10-12) Релиз www. kosmoaelita. com
Дата кодирования : UTC 2010-02-22 21:41:31
Программа кодирования : mkvmerge v5.8.0 ('No Sleep / Pillow') built on Sep 30 2012 10:57:14
Библиотека кодирования : libebml v1.3.0 + libmatroska v1.4.0
Attachment : Yes
Видео
Идентификатор : 1
Формат : AVC
Формат/Информация : Advanced Video Codec
Профиль формата : High@L4.1
Параметр CABAC формата : Да
Параметр ReFrames формата : 8 кадров
Идентификатор кодека : V_MPEG4/ISO/AVC
Продолжительность : 1 ч. 19 м.
Битрейт : 1827 Кбит/сек
Ширина : 712 пикселей
Высота : 432 пикселя
Соотношение сторон : 2,35:1
Соотношение сторон в оригинале : 2,35:1
Режим частоты кадров : Постоянный
Частота кадров : 25,000 кадров/сек
Цветовое пространство : YUV
Субдискретизация насыщенности : 4:2:0
Битовая глубина : 8 бит
Тип развёртки : Прогрессивная
Бит/(Пиксели*Кадры) : 0.238
Размер потока : 1,02 Гбайт (75%)
Заголовок : Релиз www. kosmoaelita. com
Библиотека кодирования : x264 core 125 r2208 d9d2288
Настройки программы : cabac=1 / ref=8 / deblock=1:-3:-2 / analyse=0x3:0x133 / me=umh / subme=10 / psy=1 / psy_rd=1.00:0.17 / mixed_ref=1 / me_range=24 / chroma_me=1 / trellis=2 / 8x8dct=1 / cqm=0 / deadzone=21,11 / fast_pskip=1 / chroma_qp_offset=-3 / threads=4 / lookahead_threads=1 / sliced_threads=0 / nr=0 / decimate=1 / interlaced=0 / bluray_compat=0 / constrained_intra=0 / bframes=10 / b_pyramid=2 / b_adapt=2 / b_bias=0 / direct=1 / weightb=1 / open_gop=0 / weightp=2 / keyint=220 / keyint_min=22 / scenecut=40 / intra_refresh=0 / rc_lookahead=60 / rc=crf / mbtree=1 / crf=19.0 / qcomp=0.60 / qpmin=0 / qpmax=69 / qpstep=4 / vbv_maxrate=17500 / vbv_bufsize=14000 / crf_max=0.0 / nal_hrd=none / ip_ratio=1.25 / aq=1:0.80
Default : Да
Forced : Нет
Аудио #1
Идентификатор : 2
Формат : AC-3
Формат/Информация : Audio Coding 3
Расширение режима : CM (complete main)
Параметр Endianness формата : Big
Идентификатор кодека : A_AC3
Продолжительность : 1 ч. 19 м.
Вид битрейта : Постоянный
Битрейт : 192 Кбит/сек
Каналы : 2 канала
Расположение каналов : Front: L R
Частота : 48,0 КГц
Битовая глубина : 16 бит
Метод сжатия : С потерями
Размер потока : 109 Мбайт (8%)
Заголовок : Русский (RollingHead)
Язык : Russian
Default : Да
Forced : Нет
Аудио #2
Идентификатор : 3
Формат : AC-3
Формат/Информация : Audio Coding 3
Расширение режима : CM (complete main)
Параметр Endianness формата : Big
Идентификатор кодека : A_AC3
Продолжительность : 1 ч. 19 м.
Вид битрейта : Постоянный
Битрейт : 192 Кбит/сек
Каналы : 2 канала
Расположение каналов : Front: L R
Частота : 48,0 КГц
Битовая глубина : 16 бит
Метод сжатия : С потерями
Размер потока : 109 Мбайт (8%)
Язык : English
Default : Нет
Forced : Нет
Аудио #3
Идентификатор : 4
Формат : AC-3
Формат/Информация : Audio Coding 3
Расширение режима : CM (complete main)
Параметр Endianness формата : Big
Идентификатор кодека : A_AC3
Продолжительность : 1 ч. 19 м.
Вид битрейта : Постоянный
Битрейт : 192 Кбит/сек
Каналы : 2 канала
Расположение каналов : Front: L R
Частота : 48,0 КГц
Битовая глубина : 16 бит
Метод сжатия : С потерями
Размер потока : 109 Мбайт (8%)
Заголовок : Comment
Язык : English
Default : Нет
Forced : Нет
Текст #1
Идентификатор : 5
Формат : VobSub
Идентификатор кодека : S_VOBSUB
Идентификатор кодека/Информация : The same subtitle format used on DVDs
Заголовок : Русский (Чемпион) VobSub
Язык : Russian
Default : Да
Forced : Нет
Текст #2
Идентификатор : 6
Формат : UTF-8
Идентификатор кодека : S_TEXT/UTF8
Идентификатор кодека/Информация : UTF-8 Plain Text
Заголовок : Русский (Чемпион) srt
Язык : Russian
Default : Нет
Forced : Нет
Меню
00:00:00.000 : :Chapter 01
00:06:56.360 : :Chapter 02
00:13:31.320 : :Chapter 03
00:19:13.240 : :Chapter 04
00:26:55.400 : :Chapter 05
00:33:11.520 : :Chapter 06
00:39:08.720 : :Chapter 07
00:46:15.000 : :Chapter 08
00:52:29.400 : :Chapter 09
00:59:45.600 : :Chapter 10
01:05:19.560 : :Chapter 11
01:12:02.480 : :Chapter 12

Скриншоты





cd BDRip-720p cd2 cd BDRip-1080p cd2


Last edited by admin on 2013-06-04 18:45; edited 14 times in total
[Profile] [PM]

bot

Post 19-Oct-2012 01:54 (after 6 days)

Топик был перенесен из форума 1960-1969 г. Расцвет научной кинофантастики в форум Новые релизы kosmoaelita.com

admin
 

admin ®

Gender: Male

Longevity: 7 years 3 months

Posts: 4813

Post 19-Oct-2012 02:22 (after 6 days)

[Quote]

Торрент перезалит - добавлена русская озвучка
[Profile] [PM]

kit3131

Gender: Unknown

Post 30-Oct-2012 16:30 (after 11 days)

[Quote]

Огромное спасибо!!!Совсем недавно посмотрел современную версию Доктор Кто.Неожиданно понравилось.Все сезоны.Даже не ожидал от себя такого.
Если кто знает,где можнл скачать DVD Dr. Who and the Daleks?Вторжение Далеков DVD скачал.Сегодня соберу,готов поделиться.
Еще раз Огромное Спасибо!!
 

admin ®

Gender: Male

Longevity: 7 years 3 months

Posts: 4813

Post 30-Oct-2012 16:37 (after 7 minutes)

[Quote]

Во вкладке релиз есть ссылка на ДВД - это украинский юзенет с безлимитным местом и бешеной скоростью.Но нужен украинский прокси (с других адресов не пускает)
Зайдите сюда
http://hideme.ru/demo/
а дальше через укр. прокси.Если не получится - вечером скачаю и вышлю торрент

СКРИН

[Profile] [PM]

Guest

Gender: Unknown

Post 30-Oct-2012 16:52 (after 14 minutes)

[Quote]

Севастьянов наводил справки по переводам, хочет вернуться к переводам, это тот кто для Синемаскопа переводил и озвучивал.
 

admin ®

Gender: Male

Longevity: 7 years 3 months

Posts: 4813

Post 30-Oct-2012 16:54 (after 1 minute)

[Quote]

Цена?
[Profile] [PM]

Guest

Gender: Unknown

Post 30-Oct-2012 17:54 (after 59 minutes)

[Quote]

он назвал 1200, но я сказал что тебе нужны токо сабы,а он добавил что ему лень набивать,ну набить сабы то ясно дешевле выйдет,я понимаю мы были бы ТВ-3, одна секунда рекламы по тв в 1998 году 40 000 долларов стоила а щас вообще невозможно представить,конечно 1 секунда все бы окупила
 

admin ®

Gender: Male

Longevity: 7 years 3 months

Posts: 4813

Post 30-Oct-2012 18:35 (after 41 minute)

[Quote]

1200 - его перевод с англ. и дорожка с чистым голосом?
Пусть старого Флеша Гордона переводит и озвучивает.Там две части по полтора часа по-моему...
[Profile] [PM]

bot

Post 02-Jun-2013 02:51 (after 7 months 2 days)

Топик был перенесен из форума Новые релизы kosmoaelita.com в форум 1960-1969 г. Расцвет научной кинофантастики

admin
 
Display posts:    
Topic locked

Current time is: 16-Dec 05:20

All times are UTC + 3



You cannot post new topics in this forum
You can reply to topics in this forum
You cannot edit your posts in this forum
You cannot delete your posts in this forum
You cannot vote in polls in this forum
You cannot attach files in this forum
You cannot download files in this forum