Рок-н-ролл и инопланетянка / Rock and the Alien / Rock e a Extra-Terrestre (Дионисиус Зервос / Dionysius Zervos / Denis Adam Zervos) [1988, США, фантастика, VHSRip] ПМ (Варус-Видео (с VHS)

Reply to topic
DL-List and Torrent activity
Size:  1.42 GB   |    Registered:  2 months 12 days   |    Completed:  0 times

Seeders:

Username ULR UL DL UL speed DL speed
pompilius 0 0- 0- 0- 0-
shows data only for the current session
 
   
 
 
 
Author Message

kosmoaelita ®

Gender: Male

Longevity: 7 years 5 months

Posts: 1299

Post 09-Dec-2019 01:19

[Quote]

Рок-н-ролл и инопланетянка / Rock and the Alien / Rock e a Extra-Terrestre
Страна: США, DenisZervosOmega
Жанр: фантастика
Год выпуска: 1988
Продолжительность: 01:21:47
Перевод: Профессиональный (многоголосый) Варус-Видео (с VHS)
Режиссер: Дионисиус Зервос / Dionysius Zervos / Denis Adam Zervos
В ролях:
Henry Coleman ... Geardge
Tamela Glenn ... Laser
Gregory Harvey ... Feeder
Vic Noto ... Smoothie
Harry Sands ... Ritto
Dionysius Zervos ... Tyler
Tina Cernero ... Stripper
Описание: Низкопробное поделие антивоенной направленности, где режиссер-музыкант снял себя в качестве рекламы в главной роли.
Рокнролльщика, выступающего в злачных заведениях, спустя 212 лет поисков, находит блондинка-инопланетянка и предлагает ему некий Дар. Переспав с ней он получил возможность влиять на умы миллионов людей своей музыкой. Сможет ли он своим пением предотвратить ядерную войну, которую хотят развязать "злобный СССР", да еще и до того, как злой мутант-пришелец выследит и уничтожит его?

Качество видео: VHSRip
Формат: MKV
Видео: x264, 1853 кбит/с, 720x528, 25 к/с
Аудио 1: Русский ПМ (Варус-видео) с VHS(AC3, 2 ch, 192 Кбит/с)
Аудио 2: Английский (AC3, 2 ch, 192 Кбит/с)
Аудио 3: Испанский (AC3, 2 ch, 192 Кбит/с)
Работа над релизом:
Видеоряд найден в юзенете.
Синхронизация и частичная реставрация (добавлены фоновые шумы, музыка,
звукоэффекты с ориг.дорожки. во вногих местах выровнен уровень русской речи)
русской и англ. дорожек - kosmoaelita



С переводом от Варус-Видео

Дополнительно

Also Known As (AKA)
(original title) Rock and the Alien
Brazil Rock E a Extraterrestre
Greece (video title) O tragoudistis kai i exogiini
Spain Rock y el alien
Sweden (video title) Sekundjakten

Знаете ли вы, что...

Отзывы

MediaInfo

Общее
Уникальный идентификатор : 210629872048038069321144031332430053973 (0x9E75D6787C85F8D38552A8A321890255)
Полное имя : N:\BD-DISC\Rock and the Alien\Rock and the Alien 1998.x264.VHSRip.Rus.Eng.Spa.kosmoaelita.mkv
Формат : Matroska
Версия формата : Version 4
Размер файла : 1,42 Гбайт
Продолжительность : 1 ч. 21 м.
Общий поток : 2479 Кбит/сек
Название фильма : Рок-н-ролл и инопланетянка / Rock and the Alien / Rock e a Extra-Terrestre / 1998 / kosmoaelita
Дата кодирования : UTC 2019-12-08 22:27:10
Программа кодирования : mkvmerge v7.8.0 ('River Man') 32bit built on Mar 27 2015 16:18:02
Библиотека кодирования : libebml v1.3.1 + libmatroska v1.4.2
Attachments : POSTER.jpg
Видео
Идентификатор : 1
Формат : AVC
Формат/Информация : Advanced Video Codec
Профиль формата : High@L4.1
Настройки формата : CABAC / 8 Ref Frames
Параметр CABAC формата : Да
Параметр RefFrames формата : 8 кадров
Идентификатор кодека : V_MPEG4/ISO/AVC
Продолжительность : 1 ч. 21 м.
Битрейт : 1853 Кбит/сек
Ширина : 720 пикселей
Высота : 528 пикселей
Соотношение сторон : 4:3
Режим частоты кадров : Постоянный
Частота кадров : 23,976 (23976/1000) кадра/сек
Цветовое пространство : YUV
Субдискретизация насыщенности : 4:2:0
Битовая глубина : 8 бит
Тип развёртки : Прогрессивная
Бит/(Пиксели*Кадры) : 0.203
Размер потока : 1,06 Гбайт (75%)
Заголовок : http://kosmoaelita.com/viewtopic.php?t=2953
Default : Нет
Forced : Нет
Аудио #1
Идентификатор : 2
Формат : AC-3
Формат/Информация : Audio Coding 3
Коммерческое название : Dolby Digital
Идентификатор кодека : A_AC3
Продолжительность : 1 ч. 21 м.
Вид битрейта : Постоянный
Битрейт : 192 Кбит/сек
Каналы : 2 канала
ChannelLayout : L R
Частота : 48,0 КГц
Частота кадров : 31,250 кадров/сек (1536 SPF)
Метод сжатия : С потерями
Задержка видео : -200 мс.
Размер потока : 112 Мбайт (8%)
Заголовок : Русский ПМ (Варус Видео) с VHS
Язык : Russian
ServiceKind/String : Complete Main
Default : Да
Forced : Нет
Аудио #2
Идентификатор : 3
Формат : AC-3
Формат/Информация : Audio Coding 3
Коммерческое название : Dolby Digital
Идентификатор кодека : A_AC3
Продолжительность : 1 ч. 21 м.
Вид битрейта : Постоянный
Битрейт : 192 Кбит/сек
Каналы : 2 канала
ChannelLayout : L R
Частота : 48,0 КГц
Частота кадров : 31,250 кадров/сек (1536 SPF)
Метод сжатия : С потерями
Задержка видео : -200 мс.
Размер потока : 112 Мбайт (8%)
Язык : English
ServiceKind/String : Complete Main
Default : Нет
Forced : Нет
Аудио #3
Идентификатор : 4
Формат : AC-3
Формат/Информация : Audio Coding 3
Коммерческое название : Dolby Digital
Идентификатор кодека : A_AC3
Продолжительность : 1 ч. 21 м.
Вид битрейта : Постоянный
Битрейт : 192 Кбит/сек
Каналы : 2 канала
ChannelLayout : L R
Частота : 48,0 КГц
Частота кадров : 31,250 кадров/сек (1536 SPF)
Метод сжатия : С потерями
Задержка видео : -200 мс.
Размер потока : 112 Мбайт (8%)
Язык : Spanish
ServiceKind/String : Complete Main
Default : Нет
Forced : Нет
Текст
Идентификатор : 5
Формат : UTF-8
Идентификатор кодека : S_TEXT/UTF8
Идентификатор кодека/Информация : UTF-8 Plain Text
Default : Да
Forced : Нет

Скриншоты





























Скринлист

Файл дополнительно залит на ОБЛАКО
Rock and the Alien 1998.x264.VHSRip.Rus.Eng.Spa.kosmoaelita.mkv.torrent
Torrent: Registered [ 2019-12-09 01:29 ]

Download .torrent

Download

14 KB

Status: checked
Completed: 0 times
Size: 1.42 GB
 


Last edited by kosmoaelita on 2019-12-09 16:19; edited 1 time in total
[Profile] [PM]

Трамвай-фильм

Gender: Male

Longevity: 5 years 6 months

Posts: 1797

Location: Россия

Post 09-Dec-2019 16:16 (after 14 hours)

[Quote]

Да, вспоминаю те времена, какую только муру не продавали на кассетах. Они (первые наши лицензионные фирмы) за копейки покупали вот такое видео и шлёпали у нас, в голодном экс-СССР, так как смотрели в то время реально ВСЁ!
[Profile] [PM]
Display posts:    
Reply to topic

Current time is: 21-Feb 03:41

All times are UTC + 3



You cannot post new topics in this forum
You cannot reply to topics in this forum
You cannot edit your posts in this forum
You cannot delete your posts in this forum
You cannot vote in polls in this forum
You cannot attach files in this forum
You can download files in this forum