Гиблые земли / Обреченная земля / Налетчики / Land of Doom / Bad Raiders (Питер Марис / Peter Maris) [1986, США, Фантастика, боевик, постапокалипсис, WEBRip-1080p] ПД (HTB+), СТ (Eazin)

Reply to topic
DL-List and Torrent activity
Size:  7.53 GB   |    Registered:  9 months 23 days   |    Completed:  2 times

Seeder not seen: 4 months 10 days

 
   
 
 
 
Author Message

AlexNT60 ®

Gender: Male

Longevity: 7 years 7 months

Posts: 137

Location: СПб

Post 05-Feb-2016 21:47

[Quote]

Гиблые земли / Обреченная земля / Налетчики / Land of Doom / Bad Raiders
Страна: США, Matterhorn
Жанр: Фантастика, боевик, постапокалипсис
Год выпуска: 1986
Продолжительность: 01:27:25
Перевод 1: Профессиональный (двухголосый) HTB+
Перевод 2: Субтитры (Eazin)
Режиссер: Питер Марис / Peter Maris
В ролях:
Deborah Rennard ... Harmony
Garrick Dowhen ... Anderson
Daniel Radell ... Demister / Slater
Frank Garret ... Purvis
Richard Allen ... Halsey
Akut Duz ... Orland
Bruno Chambon ... Man in Cabin
Fatosh Celik ... Village Woman
Hulta Palanci ... Village Woman
Ellen Caborn ... Village Woman
Sondra Farrell ... Village Woman
Keith Bordie ... Raider
Robie Stein ... Raider
Jason Koch ... Raider
Joseph Costello ... Raider
Описание: Земля была опустошенной ядерной войной, солдат удачи помогает женщине воину в ее путешествии в поисках места под названием "Рай". По пути они вынуждены вступать в битву с бандитами и преодолевать другие опасности.
Качество видео: WEBRip-1080p
Формат видео: MKV
Видео: x264, 11600 кбит/с, 1920x1080, 23,976 к/с
Аудио 1: Русский ПД (HTB+) (AC3, 2 ch, 224 Кбит/с)
Аудио 2: Английский (AC3, 2 ch, 224 Кбит/с)
Субтитры: Русские (Eazin), английские
Работа над релизом:
Видеоряд найден на rarbg2018.org
Синхронизация русской дорожки - kosmoaelita
Синхронизация русских субтитров - kosmoaelita



Пример русской озвучки

Дополнительно

Другие названия:
Bad Raiders West Germany (TV title)
Le monde des maudits France
Tuomittujen maa Finland

MediaInfo

Общее
Уникальный идентификатор : 215525565628613743081849564134730205903 (0xA224B6CCCD0A7BAFA70214924E858ACF)
Полное имя : Land Of Doom 1986.x264.WEBRip.1080p.Rus.kosmoaelita.mkv
Формат : Matroska
Версия формата : Version 4
Размер файла : 7,53 Гбайт
Продолжительность : 1 ч. 27 м.
Режим общего битрейта : Переменный
Общий поток : 12,3 Мбит/сек
Название фильма : Гиблые земли / Обреченная земля / Налетчики / Land of Doom / Bad Raiders / 1986 / kosmoaelita
Дата кодирования : UTC 2019-11-26 20:19:13
Программа кодирования : mkvmerge v7.8.0 ('River Man') 32bit built on Mar 27 2015 16:18:02
Библиотека кодирования : libebml v1.3.1 + libmatroska v1.4.2
Attachments : poster.jpg
Видео
Идентификатор : 1
Формат : AVC
Формат/Информация : Advanced Video Codec
Профиль формата : High@L4
Настройки формата : CABAC / 4 Ref Frames
Параметр CABAC формата : Да
Параметр RefFrames формата : 4 кадра
Идентификатор кодека : V_MPEG4/ISO/AVC
Продолжительность : 1 ч. 27 м.
Вид битрейта : Переменный
Битрейт : 11,6 Мбит/сек
Максимальный битрейт : 15,0 Мбит/сек
Ширина : 1920 пикселей
Высота : 1040 пикселей
Соотношение сторон : 1,85:1
Режим частоты кадров : Постоянный
Частота кадров : 23,976 (24000/1001) кадра/сек
Цветовое пространство : YUV
Субдискретизация насыщенности : 4:2:0
Битовая глубина : 8 бит
Тип развёртки : Прогрессивная
Бит/(Пиксели*Кадры) : 0.243
Размер потока : 7,10 Гбайт (94%)
Библиотека кодирования : x264 core 148 r2623 d5b2374
Настройки программы : cabac=1 / ref=4 / deblock=1:-1:-1 / analyse=0x3:0x133 / me=umh / subme=9 / psy=1 / psy_rd=1.00:0.15 / mixed_ref=1 / me_range=24 / chroma_me=1 / trellis=2 / 8x8dct=1 / cqm=0 / deadzone=21,11 / fast_pskip=1 / chroma_qp_offset=-3 / threads=32 / lookahead_threads=5 / sliced_threads=0 / nr=150 / decimate=1 / interlaced=0 / bluray_compat=0 / constrained_intra=0 / bframes=8 / b_pyramid=2 / b_adapt=2 / b_bias=0 / direct=3 / weightb=1 / open_gop=0 / weightp=2 / keyint=120 / keyint_min=61 / scenecut=0 / intra_refresh=0 / rc_lookahead=120 / rc=crf / mbtree=1 / crf=18.0 / qcomp=0.60 / qpmin=0 / qpmax=69 / qpstep=4 / vbv_maxrate=15000 / vbv_bufsize=31250 / crf_max=0.0 / nal_hrd=vbr / filler=0 / ip_ratio=1.40 / aq=3:1.00
Default : Да
Forced : Нет
Цветовой диапазон : Limited
Основные цвета : BT.709
Характеристики трансфера : BT.709
Коэффициенты матрицы : BT.709
Аудио #1
Идентификатор : 2
Формат : AC-3
Формат/Информация : Audio Coding 3
Коммерческое название : Dolby Digital
Идентификатор кодека : A_AC3
Продолжительность : 1 ч. 27 м.
Вид битрейта : Постоянный
Битрейт : 224 Кбит/сек
Каналы : 2 канала
ChannelLayout : L R
Частота : 48,0 КГц
Частота кадров : 31,250 кадров/сек (1536 SPF)
Метод сжатия : С потерями
Размер потока : 140 Мбайт (2%)
Заголовок : Русский ПД (НТВ+)
Язык : Russian
ServiceKind/String : Complete Main
Default : Да
Forced : Нет
Аудио #2
Идентификатор : 3
Формат : AC-3
Формат/Информация : Audio Coding 3
Коммерческое название : Dolby Digital
Идентификатор кодека : A_AC3
Продолжительность : 1 ч. 27 м.
Вид битрейта : Постоянный
Битрейт : 224 Кбит/сек
Каналы : 2 канала
ChannelLayout : L R
Частота : 48,0 КГц
Частота кадров : 31,250 кадров/сек (1536 SPF)
Метод сжатия : С потерями
Размер потока : 140 Мбайт (2%)
Язык : English
ServiceKind/String : Complete Main
Default : Нет
Forced : Нет
Текст #1
Идентификатор : 4
Формат : PGS
Режим смешивания : zlib
Идентификатор кодека : S_HDMV/PGS
Идентификатор кодека/Информация : Picture based subtitle format used on BDs/HD-DVDs
Заголовок : Русский (Eazin) .PGS - перевод с англ. субтитров
Язык : Russian
Default : Да
Forced : Нет
Текст #2
Идентификатор : 5
Формат : UTF-8
Идентификатор кодека : S_TEXT/UTF8
Идентификатор кодека/Информация : UTF-8 Plain Text
Заголовок : Русский (Eazin) .srt - перевод с англ. субтитров
Язык : Russian
Default : Нет
Forced : Нет
Текст #3
Идентификатор : 6
Формат : UTF-8
Идентификатор кодека : S_TEXT/UTF8
Идентификатор кодека/Информация : UTF-8 Plain Text
Заголовок : SDH
Язык : English
Default : Нет
Forced : Нет

Скриншоты























Скринлист

cd Рип дополнительно залит на ОБЛАКО cd2
Land Of Doom 1986.x264.WEBRip.1080p.Rus.kosmoaelita.mkv.torrent
Torrent: Registered [ 2019-11-26 23:25 ]

Download .torrent

Download

19 KB

Status: checked
Completed: 2 times
Size: 7.53 GB
 
[Profile] [PM]

Guest

Gender: Unknown

Post 07-Feb-2016 14:19 (after 1 day 16 hours)

[Quote]

Спасибо, AlexNT60!
 

Трамвай-фильм

Gender: Male

Longevity: 6 years 1 month

Posts: 1863

Location: Россия

Post 08-Feb-2016 21:09 (after 1 day 6 hours)

[Quote]

очень дешев, прям прёт 90-ми годами с НТВ+, у них там явно фан ядерного ПА сидел
что особо вставляет, что куртка ГГ, испачканная в "крови" так и осталось красной весь фильм и даже не потемнела. как это бывает с пятнами крови
[Profile] [PM]

CROM@G

Gender: Male

Longevity: 5 years

Posts: 3371

Location: Прибалтика

Post 09-Feb-2016 13:26 (after 16 hours)

[Quote]

А я считаю что самая лучшая фантастика именно 90ых За исключением Звездных войн и Бака Роджерса
[Profile] [PM]

Трамвай-фильм

Gender: Male

Longevity: 6 years 1 month

Posts: 1863

Location: Россия

Post 09-Feb-2016 19:23 (after 5 hours)

[Quote]

13144А я считаю что самая лучшая фантастика именно 90ых За исключением Звездных войн и Бака Роджерса
Звездные войны это не 90-е, в 90-х фантастика уже выродилась. ее золотое время это 80-е
1990-е это эпоха боевиков
[Profile] [PM]

CROM@G

Gender: Male

Longevity: 5 years

Posts: 3371

Location: Прибалтика

Post 09-Feb-2016 19:42 (after 19 minutes)

[Quote]

Как это не фантастика ??? А что же это ??? Любовная проза roar_002
[Profile] [PM]

Трамвай-фильм

Gender: Male

Longevity: 6 years 1 month

Posts: 1863

Location: Россия

Post 09-Feb-2016 21:00 (after 1 hour 18 minutes)

[Quote]

13149Как это не фантастика ??? А что же это ??? Любовная проза roar_002
не "не фантастика", а "не 90-е"
[Profile] [PM]

admin

Gender: Male

Longevity: 8 years

Posts: 4794

Post 26-Nov-2019 23:21 (after 3 years 9 months)

[Quote]

Замена на WEBRip-1080p
[Profile] [PM]

Susanin

Gender: Male

Longevity: 6 years 5 months

Posts: 848

Post 23-Jan-2020 20:43 (after 1 month 26 days)

[Quote]

На rarbg БД-рип появился.
[Profile] [PM]
Display posts:    
Reply to topic

Current time is: 20-Sep 17:15

All times are UTC + 3



You cannot post new topics in this forum
You cannot reply to topics in this forum
You cannot edit your posts in this forum
You cannot delete your posts in this forum
You cannot vote in polls in this forum
You cannot attach files in this forum
You can download files in this forum