Повелители глубин / Lords Of The Deep (Мэри Энн Фишер / Mary Ann Fisher) [1989, США, фантастика, триллер, WEBDL-1080p] АО (А.Алексеев), АО (Л.Володарский)

Reply to topic
DL-List and Torrent activity
Size:  7.56 GB   |    Registered:  1 year 9 months   |    Completed:  0 times

Seeder not seen: 1 year 9 months

 
   
 
 
 
Author Message

Guest

Gender: Unknown

Longevity: 50 years

Post 03-Feb-2018 22:19

[Quote]

Повелители глубин / Lords Of The Deep
Страна: США
Жанр: фантастика, триллер
Год выпуска: 1989
Продолжительность: 01:17:46
Перевод 1: Авторский (одноголосый) Алексей Антонов
Перевод 2: Авторский (одноголосый) Леонид Володарский
Режиссер: Мэри Энн Фишер / Mary Ann Fisher
В ролях:
Bradford Dillman ...Dobler
Priscilla Barnes ...Claire
Daryl Haney ...O'Neill
Mel Ryane ...Barbara (as Melody Ryane)
Eb Lottimer ...Seaver
Gregory Sobeck ...Engel (as Greg Sobeck)
Richard Young ...Chadwick
Stephen Davies ...Fernandez
John Lafayette ...Shuttle commander
Michael Adams ...Shuttle crewman
Karen Winograd ...Shuttle crewwoman
Описание: В 2020 году лучше не жить. До его наступления надо успеть либо повеситься, либо заморозиться, чтобы проснуться лет через 150. Раньше не обязательно, потому что и за полтора столетия не выветрится та чудовищная скука, которая воцарится под водой к 2020 году (на Земле через четверть века вроде как и совсем будет невозможно жить). Команда акванавтов ведет подводные работы, а обитающие на огромных глубинах чудовища мешают людям жить и трудиться. Сюжет предсказуем, финал - тоже. Самые симпатичные существа на экране - не двуногие, а водоплавающие. Умные твари!
Качество видео: WEBDL-1080p
Формат: MKV
Видео: x264, 13000 кбит/с, 1920x1040, 23,976 к/с
Аудио 1: Русский АО (Алексеев (с VHS)(AC3, 2 ch, 192 Кбит/с)
Аудио 2: Русский АО (Володарский (с VHS)(AC3, 2 ch, 192 Кбит/с)
Аудио 3: Английский (AC3, 2 ch, 224 Кбит/с)
Работа над релизом:
Видеоряд найден на rarbg2018.org
Работа по синхр. русских дорожек - kosmoaelita



Пример русского перевода

Дополнительно

слоган «The ultimate underwater adventure!»
Also Known As (AKA)
Spain Los señores del abismo
France Les seigneurs des abîmes
Greece (video title) Arhontes tou vythou

Отзывы

MediaInfo

Общее
Уникальный идентификатор : 220820982848183017290285837312429805830 (0xA6209306BE19A562B7453724EDD65106)
Полное имя : N:\BD-DISC\Lords.of.the.Deep.1989.1080p.WEBRip.DD2.0.x264-SbR\Lords Of The Deep 1989.x264.WEBDL.1080p.2xRus.kosmoaelita.mkv
Формат : Matroska
Версия формата : Version 4 / Version 2
Размер файла : 7,56 Гбайт
Продолжительность : 1 ч. 17 м.
Общий поток : 13,9 Мбит/сек
Название фильма : Lords Of The Deep / 1989 / kosmoaelita
Дата кодирования : UTC 2018-11-24 12:51:10
Программа кодирования : mkvmerge v6.6.0 ('The Edge Of The In Between') built on Dec 1 2013 17:55:00
Библиотека кодирования : libebml v1.3.0 + libmatroska v1.4.1
Attachments : POSTER Lords Of The Deep 1989.jpg / Notate.txt
Видео
Идентификатор : 1
Формат : AVC
Формат/Информация : Advanced Video Codec
Профиль формата : High@L4
Параметр CABAC формата : Да
Параметр ReFrames формата : 4 кадра
Идентификатор кодека : V_MPEG4/ISO/AVC
Продолжительность : 1 ч. 17 м.
Битрейт : 13,0 Мбит/сек
Ширина : 1920 пикселей
Высота : 1040 пикселей
Соотношение сторон : 1,85:1
Режим частоты кадров : Постоянный
Частота кадров : 23,976 (24000/1001) кадра/сек
Цветовое пространство : YUV
Субдискретизация насыщенности : 4:2:0
Битовая глубина : 8 бит
Тип развёртки : Прогрессивная
Бит/(Пиксели*Кадры) : 0.272
Размер потока : 7,08 Гбайт (94%)
Заголовок : http://kosmoaelita.com/viewtopic.php?t=2448
Default : Да
Forced : Нет
Цветовой диапазон : Limited
Основные цвета : BT.709
Характеристики трансфера : BT.709
Коэффициенты матрицы : BT.709
Аудио #1
Идентификатор : 2
Формат : AC-3
Формат/Информация : Audio Coding 3
Расширение режима : CM (complete main)
Параметр Endianness формата : Big
Идентификатор кодека : A_AC3
Продолжительность : 1 ч. 17 м.
Вид битрейта : Постоянный
Битрейт : 192 Кбит/сек
Каналы : 2 канала
Расположение каналов : Front: L R
Частота : 48,0 КГц
Частота кадров : 31,250 кадров/сек (1536 spf)
Метод сжатия : С потерями
Размер потока : 107 Мбайт (1%)
Заголовок : Русский АО (А.Алексеев) - с VHS
Язык : Russian
Default : Да
Forced : Нет
Аудио #2
Идентификатор : 3
Формат : AC-3
Формат/Информация : Audio Coding 3
Расширение режима : CM (complete main)
Параметр Endianness формата : Big
Идентификатор кодека : A_AC3
Продолжительность : 1 ч. 17 м.
Вид битрейта : Постоянный
Битрейт : 192 Кбит/сек
Каналы : 2 канала
Расположение каналов : Front: L R
Частота : 48,0 КГц
Частота кадров : 31,250 кадров/сек (1536 spf)
Метод сжатия : С потерями
Размер потока : 107 Мбайт (1%)
Заголовок : Русский АО (Л.Володарский) - с VHS
Язык : Russian
Default : Нет
Forced : Нет
Аудио #3
Идентификатор : 4
Формат : E-AC-3
Формат/Информация : Audio Coding 3
Параметр Endianness формата : Big
Идентификатор кодека : A_EAC3
Продолжительность : 1 ч. 17 м.
Вид битрейта : Постоянный
Битрейт : 224 Кбит/сек
Каналы : 2 канала
Расположение каналов : Front: L R
Частота : 48,0 КГц
Частота кадров : 187,500 кадров/сек (256 spf)
Метод сжатия : С потерями
Размер потока : 125 Мбайт (2%)
Язык : English
Default : Нет
Forced : Нет
Текст
Идентификатор : 5
Формат : UTF-8
Идентификатор кодека : S_TEXT/UTF8
Идентификатор кодека/Информация : UTF-8 Plain Text
Заголовок : SDH
Язык : English
Default : Да
Forced : Нет

Скриншоты













Скринлист

cd Рип дополнительно залит на ОБЛАКО cd2
Lords Of The Deep 1989.x264.WEBDL.1080p.2xRus.kosmoaelita.mkv.torrent
Torrent: Registered [ 2018-11-24 15:58 ]

Download .torrent

Download

19 KB

Status: checked
Completed: 0 times
Size: 7.56 GB
 


Last edited by on 2018-11-24 17:05; edited 2 times in total
[Profile] [PM]

Guest

Gender: Unknown

Longevity: 50 years

Post 24-Nov-2018 16:01 (after 9 months 20 days)

[Quote]

Замена на WEBDL-1080p
VHSRip vs. BDRip

[Profile] [PM]
Display posts:    
Reply to topic

Current time is: 20-Sep 16:39

All times are UTC + 3



You cannot post new topics in this forum
You cannot reply to topics in this forum
You cannot edit your posts in this forum
You cannot delete your posts in this forum
You cannot vote in polls in this forum
You cannot attach files in this forum
You can download files in this forum