Космический лагерь / Пикник в космосе / SpaceCamp / Space Camp (Гарри Уайнер / Harry Winer) [1986 г., фантастика, приключения, BDRip-1080р] ПМ (R5), АО (с VHS)

Reply to topic
DL-List and Torrent activity
Size:  10.61 GB   |    Registered:  1 year 1 month   |    Completed:  0 times

Seeder not seen: 7 months 23 days

 
   
 
 
 
Author Message

admin ®

Gender: Male

Longevity: 7 years 3 months

Posts: 4812

Post 07-Nov-2012 05:12

[Quote]

Космический лагерь / Пикник в космосе / SpaceCamp / Space Camp
Год выпуска: 1986
Страна: США. ABC Motion Pictures
Жанр: фантастика, приключения
Продолжительность: 01:47:27
Перевод 1: Профессиональный (многоголосый, закадровый) (R5)
Перевод 2: АО (c VHS)
Режиссер: Гарри Уайнер / Harry Winer
В ролях: Кейт Кэпшоу (Andie Bergstrom), Лиа Томпсон (Kathryn Fairly), Келли Престон (Tish Ambrosei), Лэрри Б. Скотт (Rudy Tyler), Хоакин Феникс (Max), Тейт Донован
Описание: Группа юных американцев, мечтающих стать астронавтами и покорять безвоздушное пространство, отправляется на летние каникулы в «Космический лагерь» — тренировочный комплекс, созданный под эгидой НАСА (Американской национальной ассоциации астронавтов).
«Космический лагерь» раскрывает перед ними все очарование космического полета и требует жесткой дисциплины и умения работать в команде, необходимых для завоевания новых миров. И вот наступает самый волнующий момент: ключ на старт… взлет… и трое ребят и двое девчонок во главе с инструктором НАСА Энди неожиданно для самих себя взлетают к самым настоящим звездам на борту космического челнока.
Никто из будущих астронавтов и не мог подумать, что «игра в космос» обернется реальностью, и они переживут невероятные приключения на космической орбите.
.
Качество: BDRip-1080р
Формат: MKV
Видео: x264, 13000 кбит/с, 1920x718, 23.976 (29,97) к/с,
Аудио 1: Русский ПМ (R5)(AC3, 2 ch, 192 Кбит/с)
Аудио 2: Русский АО (с VHS) (AC3, 2 ch, 192 Кбит/с)
Аудио 3: Английский (AC3, 2 ch, 192 Кбит/с)
Субтитры : Английские
Работа над релизом:
Видеоряд найден на rarbg2018.org.
Синхронизация авторского перевода "Ужастика" - kosmoaelita



Пример русского авторского перевода

Дополнительно

слоган «An impossible mistake put them into space. The adventure of their lives will be getting back home»
бюджет $18 000 000
возраст для любой зрительской аудитории
Съёмки: 24 июня 1985 — нет данных
Формат изображения: 1.85 : 1
Камера: Lenses and Panaflex Camera by Panavision
Формат копии: 35 mm
Формат съёмок: 35 mm
Изображение: цветное
Язык: английский
Also Known As (AKA)
(original title) SpaceCamp
Australia SpaceCamp
Brazil SpaceCamp - Aventura no Espaço
Canada (French title) Cap sur les étoiles
Canada (English title) SpaceCamp
Denmark SpaceCamp
Spain (Castilian title) S.O.S. Equipo Azul
Spain S.O.S. Equipo azul
Finland SpaceCamp - matka tuntemattomaan
France Cap sur les étoiles
UK SpaceCamp
Greece (video title) S.O.S. sto diastima
Hungary Űrtábor
Ireland (English title) SpaceCamp
Italy Space Camp - Gravità zero
Peru Campo espacial
Poland Kosmiczny obóz
Portugal Gravidade Zero
Soviet Union (Russian title) Пикник в космосе
USA (alternative spelling) Space Camp
West Germany Space Camp

MediaInfo

Общее
Уникальный идентификатор : 217739082798337561248831301275264284473 (0xA3CF059F55274672861386E4A3F4F739)
Полное имя : F:\SpaceCamp 1986.x264.BDRip.1080p.Rus.kosmoaelita.mkv
Формат : Matroska
Версия формата : Version 4 / Version 2
Размер файла : 10,6 Гбайт
Продолжительность : 1 ч. 47 м.
Общий поток : 14,1 Мбит/сек
Название фильма : SpaceCamp / 1986 / kosmoaelita
Дата кодирования : UTC 2018-11-11 03:27:10
Программа кодирования : mkvmerge v6.6.0 ('The Edge Of The In Between') built on Dec 1 2013 17:55:00
Библиотека кодирования : libebml v1.3.0 + libmatroska v1.4.1
Attachments : poster.jpg
Видео
Идентификатор : 1
Формат : AVC
Формат/Информация : Advanced Video Codec
Профиль формата : High@L4.1
Параметр CABAC формата : Да
Параметр ReFrames формата : 4 кадра
Идентификатор кодека : V_MPEG4/ISO/AVC
Продолжительность : 1 ч. 47 м.
Битрейт : 13,0 Мбит/сек
Ширина : 1920 пикселей
Высота : 1080 пикселей
Соотношение сторон : 16:9
Режим частоты кадров : Постоянный
Частота кадров : 23,976 (24000/1001) кадра/сек
Цветовое пространство : YUV
Субдискретизация насыщенности : 4:2:0
Битовая глубина : 8 бит
Тип развёртки : Прогрессивная
Бит/(Пиксели*Кадры) : 0.262
Размер потока : 9,58 Гбайт (90%)
Заголовок : http://kosmoaelita.com/viewtopic.php?t=325
Библиотека кодирования : x264 core 152 r2851 ba24899
Настройки программы : cabac=1 / ref=4 / deblock=1:-3:-3 / analyse=0x3:0x113 / me=umh / subme=8 / psy=1 / psy_rd=1.12:0.00 / mixed_ref=1 / me_range=32 / chroma_me=1 / trellis=2 / 8x8dct=1 / cqm=0 / deadzone=21,11 / fast_pskip=1 / chroma_qp_offset=-2 / threads=24 / lookahead_threads=4 / sliced_threads=0 / nr=0 / decimate=1 / interlaced=0 / bluray_compat=0 / constrained_intra=0 / bframes=3 / b_pyramid=2 / b_adapt=2 / b_bias=0 / direct=3 / weightb=1 / open_gop=0 / weightp=2 / keyint=240 / keyint_min=24 / scenecut=40 / intra_refresh=0 / rc_lookahead=50 / rc=2pass / mbtree=1 / bitrate=13005 / ratetol=1.0 / qcomp=0.60 / qpmin=0 / qpmax=69 / qpstep=4 / cplxblur=20.0 / qblur=0.5 / ip_ratio=1.40 / aq=3:0.80
Язык : English
Default : Да
Forced : Нет
Аудио #1
Идентификатор : 2
Формат : AC-3
Формат/Информация : Audio Coding 3
Расширение режима : CM (complete main)
Параметр Endianness формата : Big
Идентификатор кодека : A_AC3
Продолжительность : 1 ч. 47 м.
Вид битрейта : Постоянный
Битрейт : 256 Кбит/сек
Каналы : 2 канала
Расположение каналов : Front: L R
Частота : 48,0 КГц
Частота кадров : 31,250 кадров/сек (1536 spf)
Метод сжатия : С потерями
Размер потока : 197 Мбайт (2%)
Заголовок : Русский ПМ (R5) AC3 256 kBit/s 2.0 DD
Язык : Russian
Default : Да
Forced : Нет
Аудио #2
Идентификатор : 3
Формат : AC-3
Формат/Информация : Audio Coding 3
Расширение режима : CM (complete main)
Параметр Endianness формата : Big
Идентификатор кодека : A_AC3
Продолжительность : 1 ч. 47 м.
Вид битрейта : Постоянный
Битрейт : 192 Кбит/сек
Каналы : 2 канала
Расположение каналов : Front: L R
Частота : 48,0 КГц
Частота кадров : 31,250 кадров/сек (1536 spf)
Метод сжатия : С потерями
Размер потока : 148 Мбайт (1%)
Заголовок : Русский АО (с VHS)
Язык : Russian
Default : Нет
Forced : Нет
Аудио #3
Идентификатор : 4
Формат : AC-3
Формат/Информация : Audio Coding 3
Расширение режима : CM (complete main)
Параметр Endianness формата : Big
Идентификатор кодека : A_AC3
Продолжительность : 1 ч. 47 м.
Вид битрейта : Постоянный
Битрейт : 640 Кбит/сек
Каналы : 2 канала
Расположение каналов : Front: L R
Частота : 48,0 КГц
Частота кадров : 31,250 кадров/сек (1536 spf)
Метод сжатия : С потерями
Размер потока : 492 Мбайт (5%)
Язык : English
Default : Нет
Forced : Нет
Текст
Идентификатор : 5
Формат : UTF-8
Идентификатор кодека : S_TEXT/UTF8
Идентификатор кодека/Информация : UTF-8 Plain Text
Язык : English
Default : Нет
Forced : Нет
Меню
00:00:00.000 : en:00:00:00.000
00:13:45.159 : en:00:13:45.159
00:26:39.307 : en:00:26:39.307
00:43:20.140 : en:00:43:20.140
00:53:53.565 : en:00:53:53.565
01:08:04.999 : en:01:08:04.999
01:21:32.013 : en:01:21:32.013
01:35:45.241 : en:01:35:45.241

Скриншоты

















Скринлист

cd Рип дополнительно залит на ОБЛАКО cd2
SpaceCamp 1986.x264.BDRip.1080p.Rus.kosmoaelita.mkv.torrent
Torrent: Registered [ 2018-11-11 06:57 ]

Download .torrent

Download

27 KB

Status: checked
Completed: 0 times
Size: 10.61 GB
 


Last edited by admin on 2016-02-07 17:05; edited 4 times in total
[Profile] [PM]

admin ®

Gender: Male

Longevity: 7 years 3 months

Posts: 4812

Post 06-Feb-2016 13:42 (after 3 years 2 months)

[Quote]

Добавлен авторский перевод "Ужастика" с видеокассеты.
Рип паршивого качества - сплошной строб. Вероятно плохо перекодирован захваченный материал.
P.S. Это NASA вбухало в фильм 18 млн баксов в ценах 1986 года для рекламы Шаттлов? смайлик+


Last edited by admin on 2016-02-07 17:06; edited 1 time in total
[Profile] [PM]

Guest

Gender: Unknown

Longevity: 49 years

Post 11-Nov-2018 06:38 (after 2 years 9 months)

[Quote]

Замена на BDRip-1080p
[Profile] [PM]

Трамвай-фильм

Gender: Male

Longevity: 5 years 4 months

Posts: 1706

Location: Россия

Post 11-Nov-2018 16:24 (after 9 hours)

[Quote]

13126
P.S. Это NASA вбухало в фильм 18 млн баксов в ценах 1986 года для рекламы Шаттлов? смайлик+
Пилят не только в б.СССР, но и в США
[Profile] [PM]
Quick Reply

Name:

            
Heads necessary to send messages to enable JavaScript
Display posts:    
Reply to topic

Current time is: 13-Dec 03:54

All times are UTC + 3



You cannot post new topics in this forum
You can reply to topics in this forum
You cannot edit your posts in this forum
You cannot delete your posts in this forum
You cannot vote in polls in this forum
You cannot attach files in this forum
You can download files in this forum