Путешествие рок-пришельцев / Voyage of the Rock Aliens (Джеймс Фарго / James Fargo) [1984, США, мюзикл, фантастика, комедия, BDRip-1080p] АО (Алексей Багичев)

Reply to topic
DL-List and Torrent activity
Size:  6.56 GB   |    Registered:  1 year 3 months   |    Completed:  1 time

Seeder not seen: 1 year 3 months

 
   
 
 
 
Author Message

AlexNT60 ®

Gender: Male

Longevity: 7 years

Posts: 119

Location: СПб

Post 23-Oct-2018 21:20

[Quote]

Путешествие рок-пришельцев / Voyage of the Rock Aliens
Страна: США
Жанр: мюзикл, фантастика, комедия
Год выпуска: 1984
Продолжительность: 01:31:38
Перевод: Авторский (одноголосый) Алексей Багичев
Режиссер: Джеймс Фарго / James Fargo
В ролях: Пиа Задора, Крэйг Шеффер, Том Нолан, Рут Гордон, Майкл Берриман, Элисон Ла Плаца, Грегори Бонд, Патрик Бернс, Марк Джексон
Описание: Инопланетяне высаживаются в городке под названием "Спилберг" в поисках источника рок-н-ролла.
Но находят проблемы с Ди Ди, Фрэнки и всей бандой.

Качество видео: BDRip-1080p
Формат видео: MKV
Видео: x264, 9865 кбит/с, 1440x1080, 25 к/с
Аудио 1: Русский (А. Багичев) (AC3, 2 ch, 192 Кбит/с)
Аудио 2: Английский (AC3, 2 ch, 192 Кбит/с)
Работа над релизом:




Пример русского перевода

Дополнительно

слоган «The spaciest comedy ever launched!»
Also Known As (AKA)
(original title) Voyage of the Rock Aliens
Brazil Alienígenas do Rock
Finland Yön syke
France Rock Aliens
Italy Rock Aliens
Poland Kosmici graja rocka
USA (original script title) Attack of the Aliens
USA (working title) Attack of the Rock 'n' Roll Aliens
West Germany Rock Aliens

Знаете ли вы, что...

Отзывы

Рецензия

MediaInfo

General
Unique ID : 232443785825264432726632707681127100541 (0xAEDF0B74C92F01439C42091EF7D5F07D)
Complete name : F:\Torrent\Voyage.of.the.Rock.Aliens.1984.1080p.BDRip.x264.mkv
Format : Matroska
Format version : Version 4
File size : 6.56 GiB
Duration : 1 h 31 min
Overall bit rate : 10.3 Mb/s
Movie name : Voyage of the Rock Aliens (1984)
Encoded date : UTC 2018-10-23 17:20:06
Writing application : mkvmerge v28.0.0 ('Voice In My Head') 64-bit
Writing library : libebml v1.3.6 + libmatroska v1.4.9
Cover : Yes
Attachments : Cover.png / small_cover.jpg / small_cover_land.jpg / cover.jpg / cover_land.jpg
Video
ID : 3
Format : AVC
Format/Info : Advanced Video Codec
Format profile : High@L4.1
Format settings : CABAC / 4 Ref Frames
Format settings, CABAC : Yes
Format settings, ReFrames : 4 frames
Codec ID : V_MPEG4/ISO/AVC
Duration : 1 h 31 min
Bit rate : 9 865 kb/s
Width : 1 440 pixels
Height : 1 080 pixels
Display aspect ratio : 4:3
Frame rate mode : Constant
Frame rate : 25.000 FPS
Color space : YUV
Chroma subsampling : 4:2:0
Bit depth : 8 bits
Scan type : Progressive
Bits/(Pixel*Frame) : 0.254
Stream size : 6.31 GiB (96%)
Writing library : x264 core 142 r2431 ac76440
Encoding settings : cabac=1 / ref=4 / deblock=1:0:0 / analyse=0x3:0x113 / me=umh / subme=7 / psy=1 / psy_rd=1.00:0.00 / mixed_ref=1 / me_range=16 / chroma_me=1 / trellis=1 / 8x8dct=1 / cqm=0 / deadzone=21,11 / fast_pskip=0 / chroma_qp_offset=-2 / threads=9 / lookahead_threads=1 / sliced_threads=0 / nr=0 / decimate=1 / interlaced=0 / bluray_compat=0 / constrained_intra=0 / bframes=3 / b_pyramid=2 / b_adapt=1 / b_bias=0 / direct=1 / weightb=1 / open_gop=0 / weightp=2 / keyint=250 / keyint_min=25 / scenecut=40 / intra_refresh=0 / rc_lookahead=40 / rc=2pass / mbtree=1 / bitrate=9865 / ratetol=1.0 / qcomp=0.60 / qpmin=0 / qpmax=69 / qpstep=4 / cplxblur=20.0 / qblur=0.5 / ip_ratio=1.40 / aq=1:1.00
Default : No
Forced : No
Audio #1
ID : 1
Format : AC-3
Format/Info : Audio Coding 3
Commercial name : Dolby Digital
Codec ID : A_AC3
Duration : 1 h 31 min
Bit rate mode : Constant
Bit rate : 192 kb/s
Channel(s) : 2 channels
Channel layout : L R
Sampling rate : 48.0 kHz
Frame rate : 31.250 FPS (1536 SPF)
Bit depth : 16 bits
Compression mode : Lossy
Stream size : 126 MiB (2%)
Title : AVO (A.Багичев)
Language : Russian
Service kind : Complete Main
Default : Yes
Forced : No
Audio #2
ID : 2
Format : AC-3
Format/Info : Audio Coding 3
Commercial name : Dolby Digital
Codec ID : A_AC3
Duration : 1 h 31 min
Bit rate mode : Constant
Bit rate : 192 kb/s
Channel(s) : 2 channels
Channel layout : L R
Sampling rate : 48.0 kHz
Frame rate : 31.250 FPS (1536 SPF)
Bit depth : 16 bits
Compression mode : Lossy
Stream size : 126 MiB (2%)
Language : English
Service kind : Complete Main
Default : No
Forced : No

Скриншоты














Скринлист

Файл дополнительно залит на ОБЛАКО
Voyage.of.the.Rock.Aliens.1984.1080p.BDRip.x264.mkv.torrent
Torrent: Registered [ 2018-10-23 21:20 ]

Download .torrent

Download

33 KB

Status: checked
Completed: 1 times
Size: 6.56 GB
 
[Profile] [PM]

Guest

Gender: Unknown

Longevity: 50 years

Post 24-Oct-2018 01:02 (after 3 hours)

[Quote]

Спасибо.
Похоже, на блюр не тянет совершенно. ДВД растянули до масштаба HD да еще и картинку "пересветили"
DVDRip vs. BDRip

[Profile] [PM]
Display posts:    
Reply to topic

Current time is: 19-Feb 16:23

All times are UTC + 3



You cannot post new topics in this forum
You cannot reply to topics in this forum
You cannot edit your posts in this forum
You cannot delete your posts in this forum
You cannot vote in polls in this forum
You cannot attach files in this forum
You can download files in this forum