Мир без конца / Мир бесконечен / World Without End (Эдвард Берндс / Edward Bernds) [1956 г., фантастика, приключения, BDRip-1080p] ЛО (Rollinghead), СТ (user752)

Reply to topic
 
Author Message

kosmoaelita ®

Gender: Male

Longevity: 7 years 7 months

Posts: 1400

Post 02-Apr-2017 12:59

[Quote]

Мир без конца / Мир бесконечен / World Without End
Год выпуска: 1956
Страна: США
Жанр: фантастика, приключения
Продолжительность: 01:20:26
Перевод: Любительский (одноголосый) Rollinghead по субтитрам от (user752)
Режиссер: Эдвард Берндс / Edward Bernds
В ролях: Кристофер Дарк, Стэнли Фрайзер, Нэнси Гейтс, Эверетт Гласс, Нельсон Ли, Хью Марлоу, Лиза Монтелл
Описание: 2200 год. Четыре космонавта командир Джон Борден, Херберт Эллис, доктор Элдоном Галбрайт и Генри Джаффе, возвращающихся из первой миссии человечества на Марс. Ракета RXM становится жертвой случайного ускорения, и на скорости свыше 100 миль в секунду проваливается сквозь искривлённое пространство в будущее и приземляется в цепи заснеженных гор на планете, чья атмосфера идентична Земле. Позже космонавты выясняют, что они оказались в 26 веке на Земле, опустошенной атомной войной. Наши герои встретятся с отвратительный мутантами, гигантскими пауками, красавицами в коротких платьях, и ревнителями старой веры — которые борются, чтобы сохранить человечество и построить новый мир.
Качество: BDRip-1080p
Формат: MKV
Видео: x264, 11000 кбит/с, 1920x752 crf=18
Аудио 1: Русский ЛО (Rollinghead) (AC3, 2 ch, 192 Кбит/с)
Аудио 2: Английский (AC3, 2 ch, 640 Кбит/с)
Субтитры : Русские (user752)
Работа над релизом:
Рип с BD25 с синематика - kosmoaelita, качество - crf=18
Озвучка - Синица Сергей ака ROLLINGHEAD
Перевод - user752
Синхронизация русских дорожки и субтитров - kosmoaelita
Лог кодирования - в контейнере



Пример русского перевода

Дополнительно

CinemaScope's First Science-Fiction Thriller Hurls You into the Year 2508!»

Рецензия

Лог кодирования

MediaInfo

Общее
Уникальный идентификатор : 236929286250852004649068164700014035307 (0xB23EEBB39A7B66259AAB200DB592C16B)
Полное имя : N:\World Without End 1956.x264.BDRip.1080p.Rus.kosmoaelita.mkv
Формат : Matroska
Версия формата : Version 4 / Version 2
Размер файла : 6,66 Гбайт
Продолжительность : 1 ч. 20 м.
Общий поток : 11,8 Мбит/сек
Название фильма : World Without End / 1956 / rip from BD25 by sasha20072007 (kosmoaelita) (2017-04-03), crf=18.05
Дата кодирования : UTC 2017-04-03 07:27:27
Программа кодирования : mkvmerge v6.6.0 ('The Edge Of The In Between') built on Dec 1 2013 17:55:00
Библиотека кодирования : libebml v1.3.0 + libmatroska v1.4.1
Attachments : 00000 1080.mkv.encoding.log / poster .jpg
Видео
Идентификатор : 1
Формат : AVC
Формат/Информация : Advanced Video Codec
Профиль формата : High@L4.1
Параметр CABAC формата : Да
Параметр ReFrames формата : 8 кадров
Идентификатор кодека : V_MPEG4/ISO/AVC
Продолжительность : 1 ч. 20 м.
Битрейт : 11,0 Мбит/сек
Ширина : 1920 пикселей
Высота : 752 пикселя
Соотношение сторон : 2,553
Режим частоты кадров : Постоянный
Частота кадров : 23,976 кадра/сек
Цветовое пространство : YUV
Субдискретизация насыщенности : 4:2:0
Битовая глубина : 8 бит
Тип развёртки : Прогрессивная
Бит/(Пиксели*Кадры) : 0.318
Размер потока : 6,06 Гбайт (91%)
Заголовок : kosmoaelita
Библиотека кодирования : x264 core 130 r2273 b3065e6
Настройки программы : cabac=1 / ref=8 / deblock=1:-1:-1 / analyse=0x3:0x133 / me=umh / subme=10 / psy=1 / psy_rd=0.99:0.14 / mixed_ref=1 / me_range=32 / chroma_me=1 / trellis=2 / 8x8dct=1 / cqm=0 / deadzone=21,11 / fast_pskip=1 / chroma_qp_offset=-3 / threads=6 / lookahead_threads=1 / sliced_threads=0 / nr=0 / decimate=1 / interlaced=0 / bluray_compat=0 / constrained_intra=0 / bframes=8 / b_pyramid=2 / b_adapt=2 / b_bias=0 / direct=3 / weightb=1 / open_gop=0 / weightp=2 / keyint=210 / keyint_min=21 / scenecut=40 / intra_refresh=0 / rc_lookahead=60 / rc=2pass / mbtree=1 / bitrate=11000 / ratetol=1.0 / qcomp=0.65 / qpmin=0 / qpmax=69 / qpstep=4 / cplxblur=20.0 / qblur=0.5 / ip_ratio=1.25 / aq=1:0.90
Язык : English
Default : Да
Forced : Нет
Цветовой диапазон : Limited
Основные цвета : BT.709
Характеристики трансфера : BT.709
Коэффициенты матрицы : BT.709
Аудио #1
Идентификатор : 2
Формат : AC-3
Формат/Информация : Audio Coding 3
Расширение режима : CM (complete main)
Параметр Endianness формата : Big
Идентификатор кодека : A_AC3
Продолжительность : 1 ч. 20 м.
Вид битрейта : Постоянный
Битрейт : 192 Кбит/сек
Каналы : 2 канала
Расположение каналов : Front: L R
Частота : 48,0 КГц
Частота кадров : 31,250 кадров/сек (1536 spf)
Метод сжатия : С потерями
Размер потока : 111 Мбайт (2%)
Заголовок : Русский ЛО (Сергей Синица ака ROLLINGHEAD)
Язык : Russian
Default : Да
Forced : Нет
Аудио #2
Идентификатор : 3
Формат : AC-3
Формат/Информация : Audio Coding 3
Расширение режима : CM (complete main)
Параметр Endianness формата : Big
Идентификатор кодека : A_AC3
Продолжительность : 1 ч. 20 м.
Вид битрейта : Постоянный
Битрейт : 640 Кбит/сек
Каналы : 2 канала
Расположение каналов : Front: L R
Частота : 48,0 КГц
Частота кадров : 31,250 кадров/сек (1536 spf)
Метод сжатия : С потерями
Размер потока : 368 Мбайт (5%)
Язык : English
Default : Нет
Forced : Нет
Текст #1
Идентификатор : 4
Формат : VobSub
Режим смешивания : zlib
Идентификатор кодека : S_VOBSUB
Идентификатор кодека/Информация : Picture based subtitle format used on DVDs
Заголовок : Русский (user752) VobSub - перевод с англ. субтитров
Язык : Russian
Default : Да
Forced : Нет
Текст #2
Идентификатор : 5
Формат : UTF-8
Идентификатор кодека : S_TEXT/UTF8
Идентификатор кодека/Информация : UTF-8 Plain Text
Заголовок : Русский (user752) srt - перевод с англ. субтитров
Язык : Russian
Default : Нет
Forced : Нет
Текст #3
Идентификатор : 6
Формат : VobSub
Режим смешивания : zlib
Идентификатор кодека : S_VOBSUB
Идентификатор кодека/Информация : Picture based subtitle format used on DVDs
Язык : English
Default : Нет
Forced : Нет
Текст #4
Идентификатор : 7
Формат : VobSub
Режим смешивания : zlib
Идентификатор кодека : S_VOBSUB
Идентификатор кодека/Информация : Picture based subtitle format used on DVDs
Язык : English
Default : Нет
Forced : Нет
Текст #5
Идентификатор : 8
Формат : VobSub
Режим смешивания : zlib
Идентификатор кодека : S_VOBSUB
Идентификатор кодека/Информация : Picture based subtitle format used on DVDs
Язык : French
Default : Нет
Forced : Нет
Меню
00:00:00.000 : en:00:00:00.000
00:01:26.253 : en:00:01:26.253
00:03:18.698 : en:00:03:18.698
00:06:21.006 : en:00:06:21.006
00:07:57.644 : en:00:07:57.644
00:11:05.498 : en:00:11:05.498
00:15:29.095 : en:00:15:29.095
00:18:18.306 : en:00:18:18.306
00:22:53.914 : en:00:22:53.914
00:26:24.333 : en:00:26:24.333
00:29:44.616 : en:00:29:44.616
00:34:54.592 : en:00:34:54.592
00:39:06.135 : en:00:39:06.135
00:42:49.358 : en:00:42:49.358
00:45:50.915 : en:00:45:50.915
00:49:26.964 : en:00:49:26.964
00:54:03.991 : en:00:54:03.991
00:59:57.761 : en:00:59:57.761
01:04:42.879 : en:01:04:42.879
01:08:22.015 : en:01:08:22.015
01:13:00.042 : en:01:13:00.042
01:18:29.538 : en:01:18:29.538
01:20:04.633 : en:01:20:04.633
01:20:24.820 : en:01:20:24.820

Скринлист

cd Рип дополнительно залит на ОБЛАКО cd2


Last edited by kosmoaelita on 2017-04-03 21:06; edited 1 time in total
[Profile] [PM]

Susanin

Gender: Male

Longevity: 5 years 11 months

Posts: 842

Post 03-Apr-2017 14:58 (after 1 day 1 hour)

[Quote]

А на облаке будет?
[Profile] [PM]

admin

Gender: Male

Longevity: 7 years 7 months

Posts: 4811

Post 03-Apr-2017 21:02 (after 6 hours)

[Quote]

Да
[Profile] [PM]

Susanin

Gender: Male

Longevity: 5 years 11 months

Posts: 842

Post 05-Apr-2017 21:13 (after 2 days)

[Quote]

Кстати, хочу пожаловаться: уже который раз архивы, скачанные с облака, распаковываются с ошибкой, причём и Винраром, и 7зип. Приходится потом этот распакованный фильм засовывать в торрент и докачивать то, что из-за ошибки не попало в файл.
[Profile] [PM]

kosmoaelita ®

Gender: Male

Longevity: 7 years 7 months

Posts: 1400

Post 06-Apr-2017 01:48 (after 4 hours)

[Quote]

Здесь тоже битый?
Сейчас скачаю. проверю
[Profile] [PM]

Susanin

Gender: Male

Longevity: 5 years 11 months

Posts: 842

Post 06-Apr-2017 09:21 (after 7 hours)

[Quote]

kosmoaelita, да. Я уж и архиваторы обновлял, и всё равно такая фигня выходит.
[Profile] [PM]

kosmoaelita ®

Gender: Male

Longevity: 7 years 7 months

Posts: 1400

Post 06-Apr-2017 09:56 (after 34 minutes)

[Quote]

На облаке порядок.
У вас проблема с самой качалкой.
Я качал через браузер Интернет (Хром 28).
Открыл 4 архива в 4 разных вкладках и одновременно все 4 поставил на закачку.
Все 4 архива скачались и старым винраром нормально распаковались.
Только что проверил данный файл.
[Profile] [PM]

Susanin

Gender: Male

Longevity: 5 years 11 months

Posts: 842

Post 06-Apr-2017 10:05 (after 9 minutes)

[Quote]

kosmoaelita, странно. Я качаю Мозиллой, при этом любые архивы распаковываются без проблем, кроме скачанных с облака Мэйла. В чём может быть проблема?
[Profile] [PM]

kosmoaelita ®

Gender: Male

Longevity: 7 years 7 months

Posts: 1400

Post 06-Apr-2017 10:46 (after 40 minutes)

[Quote]

Проблема и есть в мозилле - она качает в пару потоков через загрузчик.
Попробуйте качать в один поток через другой браузер - в таком случае при сбое закачка просто перервется.
В любом случае, я проверил - на облаке все архивы целые.
[Profile] [PM]
Display posts:    
Reply to topic

Current time is: 04-Apr 14:32

All times are UTC + 3



You cannot post new topics in this forum
You cannot reply to topics in this forum
You cannot edit your posts in this forum
You cannot delete your posts in this forum
You cannot vote in polls in this forum
You cannot attach files in this forum
You cannot download files in this forum