Охотники на привидений (мульт) / Ghostbusters (Том Татаранович, Том Сито) [1986, США, фантастика, приключения, DVDRip] [Полнометражка] АО (Трамвай фильм)

Reply to topic
DL-List and Torrent activity
Size:  910 MB   |    Registered:  2 years 8 months   |    Completed:  12 times

Seeders:

Username ULR UL DL UL speed DL speed
evilbuch 0 0- 0- 0- 0-
shows data only for the current session
 
   
 
 
 
Author Message

Трамвай-фильм ®

Gender: Male

Longevity: 4 years 10 months

Posts: 1460

Location: Россия

Post 15-Oct-2016 21:05

[Quote]

Охотники на привидений / Ghostbusters / Полнометражка (мульт)
Страна: США
Жанр: фантастика, приключения
Год выпуска: 1986
Продолжительность: 01:39:42
Перевод: Авторский (одноголосый) Трамвай фильм
Режиссер: Том Татаранович, Том Сито
Описание: Сыновья первых в мире охотников на привидений и их компаньоны сражаются с повелителем злых духов Первозлобом и его приспешниками.
Доп. информация: Фильм основан на шоу телестудии Фильмейшн 1975 года "Охотники на привидений" (не путать с Охотниками с Биллом Мюррейем 1984 года)
Хотелось бы обратить внимание на некоторые особенности перевода, местами он адаптивный, например снаряжение охотников Ghost Pack и Ghost Gummer переведены как "рюкзак" и "резиномет", т.е. чем они по сути и являются, а не призрачный пакет и призрачный резинщик. Аналогично и с именами, местами и другими предметами, где русское название в оригинале не очень благозвучно.
Сериал, 65 серий из 65.
Качество видео: DVDRip
Формат видео: AVI
Видео: Xvid, 480x352, 29.97fps, 1 089 кб/с
Аудио: MP3, 44100Hz, stereo, 128 кб/с

MediaInfo

Video
ID : 0
Format : MPEG-4 Visual
Codec ID : XVID
Codec ID/Hint : XviD
Duration : 1h 39mn
Bit rate : 1 089 Kbps
Width : 480 pixels
Height : 352 pixels
Display aspect ratio : 4:3
Frame rate : 29.970 fps
Color space : YUV
Chroma subsampling : 4:2:0
Compression mode : Lossy
Bits/(Pixel*Frame) : 0.215
Stream size : 777 MiB (85%)
Audio
ID : 1
Format : MPEG Audio
Codec ID : 55
Codec ID/Hint : MP3
Duration : 1h 39mn
Bit rate : 128 Kbps
Channel(s) : 2 channels
Sampling rate : 44.1 KHz
Compression mode : Lossy
Stream size : 91.3 MiB (10%)
Alignment : Aligned on interleaves

Скриншоты



Скринлист

cd Рип дополнительно залит на ОБЛАКО cd2
Ghost.Busters.1986.Movie.torrent
Torrent: Registered [ 2016-10-15 21:05 ]

Download .torrent

Download

18 KB

Status: checked
Completed: 12 times
Size: 910 MB
 
[Profile] [PM]
Quick Reply

Name:

            
Heads necessary to send messages to enable JavaScript
Display posts:    
Reply to topic

Current time is: 25-Jun 14:44

All times are UTC + 3



You can post new topics in this forum
You can reply to topics in this forum
You cannot edit your posts in this forum
You cannot delete your posts in this forum
You cannot vote in polls in this forum
You cannot attach files in this forum
You can download files in this forum