Рептиликус / Reptilicus (Сидни В. Пинк / Sidney W. Pink) [1961, Дания, США, фантастика, BDRip-1080p] [амер. версия] ЛО (den904), СТ (karlivanovich)

Reply to topic
 
Author Message

admin ®

Gender: Male

Longevity: 7 years 1 month

Posts: 4725

Location: Україна

Post 19-Jul-2016 01:06

[Quote]

Рептиликус / Reptilicus (амер. версия)
Страна: Дания, США
Жанр: фантастика
Год выпуска: 1961
Продолжительность: 01:21:36
Перевод: ЛО den904 по субтитрам от (kosmoaelita-karlivanovich)
Режиссер: Сидни В. Пинк / Sidney W. Pink
В ролях: Бент Мейдинг, Асбьёрн Андерсен, Povl Wøldike, Энн Смирнер, Мими Генрих, Дирх Пассер, Марла Беренс, Карл Оттосен, Оле Визборг, Бирте Вилке
Описание: Где-то в недоступной горной тундре Лапландии, далеко за Полярным кругом группа геологов искала месторождения меди. Но то что они нашли, было нечто другое, нечто, что потрясло весь мир.
Доп. информация: Это американская версия фильма. Несколько других артистов, женские сплетни убрали. Монстр стал плеватся кислотой. Добавили артиллерии и так далее.
Наверное для Дании это был мощный фильм. Весь свой флот и армию для съёмок задействовали.
Релиз

Качество: BDRip-1080p
Формат: MKV
Видео: AVC, 1792x1080, 4:3, 23,976 кадра/сек, 13,7 Мбит/сек
Аудио 1: Русский ЛО (den904) (AC3, 2 ch, 384 Кбит/с)
Ауди 2: Английский, AC-3, 640 Кбит/сек, 2 канала, 48,0 КГц
Аудио 3: Французкий, AC-3, 192 Кбит/сек, 2 канала, 48,0 КГц
Субтитры : Русские (karlivanovich), английские, испанские. французские
Работа над релизом:
Релиз kosmoaelita
Русский релиз увидел свет благодаря $Shorox, kosmoaelita
Перевод - karlivanovich
Видеоряд скачан с СГ
Русская озвучка по заказу kosmoaelita - den904
Спонсор русской озвучки - Андрей Берг



Пример русского субтитрового перевода:

Дополнительно

Знаете ли вы, что...

Отзывы

Рецензия

MediaInfo

Общее
Уникальный идентификатор : 202217820325973151461379980107259545572 (0x9821BC4CB4E88FD995B3E80E275F87E4)
Полное имя : N:\Reptilicus [USA version] 1961.x264.BDRip.1080p.Rus.kosmoaelita.mkv
Формат : Matroska
Версия формата : Version 4 / Version 2
Размер файла : 8,69 Гбайт
Продолжительность : 1 ч. 21 м.
Режим общего битрейта : Переменный
Общий поток : 15,3 Мбит/сек
Название фильма : Reptilicus.1961.Bluray.1080p
Дата кодирования : UTC 2016-08-31 00:04:34
Программа кодирования : mkvmerge v6.6.0 ('The Edge Of The In Between') built on Dec 1 2013 17:55:00
Библиотека кодирования : libebml v1.3.0 + libmatroska v1.4.1
Attachments : Poster REPTILICUS 1961.JPG
Видео
Идентификатор : 1
Формат : AVC
Формат/Информация : Advanced Video Codec
Профиль формата : High@L4.1
Параметр CABAC формата : Да
Параметр ReFrames формата : 4 кадра
Идентификатор кодека : V_MPEG4/ISO/AVC
Продолжительность : 1 ч. 21 м.
Вид битрейта : Переменный
Битрейт : 13,7 Мбит/сек
Максимальный битрейт : 30,0 Мбит/сек
Ширина : 1920 пикселей
Высота : 1080 пикселей
Соотношение сторон : 16:9
Режим частоты кадров : Постоянный
Частота кадров : 23,976 (24000/1001) кадра/сек
Цветовое пространство : YUV
Субдискретизация насыщенности : 4:2:0
Битовая глубина : 8 бит
Тип развёртки : Прогрессивная
Бит/(Пиксели*Кадры) : 0.276
Размер потока : 7,83 Гбайт (90%)
Заголовок : kosmoaelita
Язык : English
Default : Да
Forced : Нет
Аудио #1
Идентификатор : 2
Формат : AC-3
Формат/Информация : Audio Coding 3
Расширение режима : CM (complete main)
Параметр Endianness формата : Big
Идентификатор кодека : A_AC3
Продолжительность : 1 ч. 21 м.
Вид битрейта : Постоянный
Битрейт : 384 Кбит/сек
Каналы : 2 канала
Расположение каналов : Front: L R
Частота : 48,0 КГц
Частота кадров : 31,250 кадров/сек (1536 spf)
Метод сжатия : С потерями
Размер потока : 224 Мбайт (3%)
Заголовок : Русский ЛО (den904 для kosmoaelita.com) - поддержка А.Берг
Язык : Russian
Default : Да
Forced : Нет
Аудио #2
Идентификатор : 3
Формат : AC-3
Формат/Информация : Audio Coding 3
Расширение режима : CM (complete main)
Параметр Endianness формата : Big
Идентификатор кодека : A_AC3
Продолжительность : 1 ч. 21 м.
Вид битрейта : Постоянный
Битрейт : 640 Кбит/сек
Каналы : 2 канала
Расположение каналов : Front: L R
Частота : 48,0 КГц
Частота кадров : 31,250 кадров/сек (1536 spf)
Метод сжатия : С потерями
Размер потока : 374 Мбайт (4%)
Язык : English
Default : Нет
Forced : Нет
Аудио #3
Идентификатор : 4
Формат : AC-3
Формат/Информация : Audio Coding 3
Расширение режима : CM (complete main)
Параметр Endianness формата : Big
Идентификатор кодека : A_AC3
Продолжительность : 1 ч. 21 м.
Вид битрейта : Постоянный
Битрейт : 192 Кбит/сек
Каналы : 2 канала
Расположение каналов : Front: L R
Частота : 48,0 КГц
Частота кадров : 31,250 кадров/сек (1536 spf)
Метод сжатия : С потерями
Размер потока : 112 Мбайт (1%)
Язык : French
Default : Нет
Forced : Нет
Текст #1
Идентификатор : 5
Формат : VobSub
Режим смешивания : zlib
Идентификатор кодека : S_VOBSUB
Идентификатор кодека/Информация : Picture based subtitle format used on DVDs
Заголовок : Русский (karlivanovich-kosmoaelita) VobSub
Язык : Russian
Default : Да
Forced : Нет
Текст #2
Идентификатор : 6
Формат : VobSub
Режим смешивания : zlib
Идентификатор кодека : S_VOBSUB
Идентификатор кодека/Информация : Picture based subtitle format used on DVDs
Заголовок : Русский (karlivanovich-kosmoaelita) VobSub
Язык : Russian
Default : Нет
Forced : Нет
Текст #3
Идентификатор : 7
Формат : UTF-8
Идентификатор кодека : S_TEXT/UTF8
Идентификатор кодека/Информация : UTF-8 Plain Text
Заголовок : Русский (karlivanovich-kosmoaelita) srt
Язык : Russian
Default : Нет
Forced : Нет
Текст #4
Идентификатор : 8
Формат : PGS
Режим смешивания : zlib
Идентификатор кодека : S_HDMV/PGS
Идентификатор кодека/Информация : Picture based subtitle format used on BDs/HD-DVDs
Язык : English
Default : Нет
Forced : Нет
Текст #5
Идентификатор : 9
Формат : UTF-8
Идентификатор кодека : S_TEXT/UTF8
Идентификатор кодека/Информация : UTF-8 Plain Text
Язык : Spanish
Default : Нет
Forced : Нет
Текст #6
Идентификатор : 10
Формат : UTF-8
Идентификатор кодека : S_TEXT/UTF8
Идентификатор кодека/Информация : UTF-8 Plain Text
Язык : French
Default : Нет
Forced : Нет
Меню
00:00:00.000 : en:00:00:00.000
00:12:27.746 : en:00:12:27.746
00:24:21.084 : en:00:24:21.084
00:38:08.452 : en:00:38:08.452
00:46:09.141 : en:00:46:09.141
00:56:37.393 : en:00:56:37.393
01:13:33.117 : en:01:13:33.117

Скриншоты











Скринлист



Last edited by admin on 2016-08-31 03:25; edited 8 times in total
[Profile] [PM]

admin ®

Gender: Male

Longevity: 7 years 1 month

Posts: 4725

Location: Україна

Post 19-Jul-2016 01:07 (after 1 minute)

[Quote]

Уже традиционно, при издании на блюрике картинку порезали по вертикали
http://screenshotcomparison.com/comparison/179001

[Profile] [PM]

$Shorox

Gender: Male

Longevity: 6 years 9 months

Posts: 1888

Post 01-Aug-2016 16:36 (after 13 days)

[Quote]

admin,
Спасибо.
В качестве смотреть всё равно, что в первый раз. Много нового увидишь.
[Profile] [PM]

CROM@G

Gender: Male

Longevity: 4 years

Posts: 2301

Location: Прибалтика

Post 01-Aug-2016 17:14 (after 37 minutes)

[Quote]

Судя по скринам блюрик какой-то дутый
[Profile] [PM]

admin ®

Gender: Male

Longevity: 7 years 1 month

Posts: 4725

Location: Україна

Post 31-Aug-2016 01:56 (after 29 days)

[Quote]

Добавлена русская озвучка от den904
[Profile] [PM]
Display posts:    
Reply to topic

Current time is: 14-Oct 08:40

All times are UTC + 3



You cannot post new topics in this forum
You cannot reply to topics in this forum
You cannot edit your posts in this forum
You cannot delete your posts in this forum
You cannot vote in polls in this forum
You cannot attach files in this forum
You cannot download files in this forum