Странный мир института Емери / Странный мир / Жуткий мир / W.E.I.R.D. World (Уильям Мэлоун / William Malone) [1995, США, фантастика, TVRip] ПМ (5 канал Петербург), АО (А.Алексеев)

Reply to topic
 
Author Message

$Shorox ®

Gender: Male

Longevity: 7 years 6 months

Posts: 1887

Post 08-Nov-2015 22:46

[Quote]

Странный мир института Емери / Странный мир / Жуткий мир / W.E.I.R.D. World
Страна: США, Hallmark Entertainment, Two Fisted Productions
Жанр: фантастика
Год выпуска: 1995
Продолжительность: 01:26:37
Перевод 1: ПМ 5 канал, Санкт-Петербург
Перевод 2: Авторский (одноголосый) А.Алексеев
Режиссер: Уильям Мэлоун / William Malone
В ролях: Дэна Эшбрук, Маршалл Белл, Оди Ингленд, Пола Маршалл, Кэтрин Моррис, Мигель А. Нуньес мл., Джина Равера, Клэйтон Ронер, Джим Тру-Фрост, Эд О’Нил
Описание: Действие происходит в недрах секретного исследовательского института «Wilson Emery Institute for Research and Development», занимающегося разработкой суперсовременных технологий, как, например, перемещением… во времени! Организатор всего этого дела — мрачный, циничный и невероятно целеустремленный руководитель института доктор Манукян, сумел собрать под свое крылышко лучших из лучших — молодых светил современной американской кой науки. Поиски гениев велись даже на уровне младших классов. Так, например, была найдена гениальная девочка Сьюзи, самая юная выпускница Гаварда за всю историю института, и рассуждающая в свои 10-12 лет о квантовой физике так, будто речь идет всего лишь о новых нарядах для Барби.
Так, например, вирусолог Дилан Блидсоу создает новейшие лекарственные средства, который ради своей цели не гнушается ничем, даже намеренной смертью своей помощницы Кэтрин. Другой исследователь Ноа Лэйн, создающий робототехнические средства, и саму же наполовину является андроидом, как, впрочем, и его привлекательная ассистентка Дайана. Именно с ее помощью Ноа Лэйн вывел на чистую воду и в итоге физически уничтожил амбициозного Дилана.

Релиз



Работа над релизом:
Релиз kosmoaelita
За предоставленный перевод 5 канала большое спасибо SUPERDVD01 (запись с ТВ в дорутрекерный период)
Работа по синхрону русских дорожек - kosmoaelita

Качество видео: TVRip
Формат видео: MKV
Видео: AVC, 512x384, 25,000 кадров/сек, 1155 Кбит/сек
Аудио 1: Русский ПМ (5 канал), AC-3, 192 Кбит/сек, 2 канала, 48,0 КГц

Аудио 2: Русский АО (Алексеев), AC-3, 192 Кбит/сек, 2 канала, 48,0 КГц
Пример русского перевода от 5 канала:

MediaInfo

Общее
Уникальный идентификатор : 202260760135902998651999889685499945578 (0x982A01654DD13E55935454353BD9226A)
Полное имя : N:\W.E.I.R.D. World [William Malone] 1995.DivX3.TVRip.2xRus.kosmoaelita.mkv
Формат : Matroska
Версия формата : Version 4 / Version 2
Размер файла : 973 Мбайт
Продолжительность : 1 ч. 26 м.
Общий поток : 1570 Кбит/сек
Название фильма : W.E.I.R.D. World (William Malone) [1995]
Дата кодирования : UTC 2016-04-06 18:08:59
Программа кодирования : mkvmerge v6.6.0 ('The Edge Of The In Between') built on Dec 1 2013 17:55:00
Библиотека кодирования : libebml v1.3.0 + libmatroska v1.4.1
Attachments : POSTER.jpg
Видео
Идентификатор : 1
Формат : MPEG-4 Visual
Идентификатор кодека : V_MS/VFW/FOURCC / DIV3
Идентификатор кодека/Подсказка : DivX 3 Low
Продолжительность : 1 ч. 26 м.
Битрейт : 1155 Кбит/сек
Ширина : 512 пикселей
Высота : 384 пикселя
Соотношение сторон : 4:3
Режим частоты кадров : Постоянный
Частота кадров : 25,000 кадров/сек
Цветовое пространство : YUV
Субдискретизация насыщенности : 4:2:0
Битовая глубина : 8 бит
Метод сжатия : С потерями
Бит/(Пиксели*Кадры) : 0.235
Размер потока : 716 Мбайт (74%)
Заголовок : kosmoaelita
Default : Да
Forced : Нет
Аудио #1
Идентификатор : 2
Формат : AC-3
Формат/Информация : Audio Coding 3
Расширение режима : CM (complete main)
Параметр Endianness формата : Big
Идентификатор кодека : A_AC3
Продолжительность : 1 ч. 26 м.
Вид битрейта : Постоянный
Битрейт : 192 Кбит/сек
Каналы : 2 канала
Расположение каналов : Front: L R
Частота : 48,0 КГц
Частота кадров : 31,250 кадров/сек (1536 spf)
Метод сжатия : С потерями
Размер потока : 119 Мбайт (12%)
Заголовок : Русский ПМ (5 канал С.-Петербург)
Язык : Russian
Default : Да
Forced : Нет
Аудио #2
Идентификатор : 3
Формат : AC-3
Формат/Информация : Audio Coding 3
Расширение режима : CM (complete main)
Параметр Endianness формата : Big
Идентификатор кодека : A_AC3
Продолжительность : 1 ч. 26 м.
Вид битрейта : Постоянный
Битрейт : 192 Кбит/сек
Каналы : 2 канала
Расположение каналов : Front: L R
Частота : 48,0 КГц
Частота кадров : 31,250 кадров/сек (1536 spf)
Метод сжатия : С потерями
Размер потока : 119 Мбайт (12%)
Заголовок : Русский АО (А.Алексеев) - с VHS
Язык : Russian
Default : Нет
Forced : Нет

Скринлист

[IMG] [/IMG]

Скриншоты








cd Рип дополнительно залит на ОБЛАКО cd2
[Profile] [PM]

$Shorox ®

Gender: Male

Longevity: 7 years 6 months

Posts: 1887

Post 08-Nov-2015 23:04 (after 17 minutes)

[Quote]

Разницы большой нет с тем, что в сети есть. Исходник в VHS один и тот же - дрянь, 101 копия. Записан с телеканала на VHS, потом переведён на русский.
Малость всё же получше.
[Profile] [PM]

admin

Gender: Male

Longevity: 7 years 10 months

Posts: 4799

Post 06-Apr-2016 21:27 (after 4 months 27 days)

[Quote]

Замена на ТВ рип. Добавлен перевод ПМ от 5 канала.
Тв рир с учетом перетяжки примерно на минуту длиннее VHSRipa
[Profile] [PM]

$Shorox ®

Gender: Male

Longevity: 7 years 6 months

Posts: 1887

Post 06-Apr-2016 21:45 (after 18 minutes)

[Quote]

admin,
Спасибо.
[Profile] [PM]

admin

Gender: Male

Longevity: 7 years 10 months

Posts: 4799

Post 06-Apr-2016 21:46 (after 56 seconds)

[Quote]

Плохо, шо оригинальной дорожки нигде нет
[Profile] [PM]
Display posts:    
Reply to topic

Current time is: 10-Jul 01:00

All times are UTC + 3



You cannot post new topics in this forum
You cannot reply to topics in this forum
You cannot edit your posts in this forum
You cannot delete your posts in this forum
You cannot vote in polls in this forum
You cannot attach files in this forum
You cannot download files in this forum