Космическая морская пехота / Space Marines (Джон Уайднер) [1996, США, Фантастика Боевик, DVD5] (ПМ : ТВ-3)

Reply to topic
 
Author Message

CROM@G ®

Gender: Male

Longevity: 4 years 8 months

Posts: 3319

Location: Прибалтика

Post 12-Mar-2016 12:42

[Quote]

Космическая морская пехота [DVD 5] / Space Marines
Страна: США
Жанр: Фантастика Боевик
Год выпуска: 1996
Продолжительность: 01:30:01
Перевод 2: Профессиональный (многоголосый) ТВ-3
Cубтитры: нет
Режиссер: Джон Уайднер
В ролях: Билли Уэрт, Кэди Хаффмен, Джон Пайпер-Фергюсон, Эдвард Альберт, Мег Фостер, Блейк Бойд, Т.Дж. Майерс, Майкл Бэйли Смит, Эд Спила, Шерман Огастас
Описание: Наступила новая космическая эра. Межзвездные корабли бороздят бескрайние просторы Галактики. Но космические пираты стремятся установить свое господство во Вселенной. В схватку с преступниками вступает космическая морская пехота…
Доп. информация: Описалово и звук взял отседова http://rutracker.org/forum/viewtopic.php?t=2577701 Где взял двд уже и позабыл
За монтаж звука и сборку двд огромное спасибо anvic


Качество видео: DVD5 ,720;576, MPEG Video ,4;3 ,5407 кбит.сек
Аудио: AC-3 2 Chanell 48kh 192 kb/s
Аудио 2: AC-3 2 Chanell 48 kh 224 kb/s

MediaInfo

Общее
Полное имя : C:\Users\Roman\Космическая морская пехота\smar\VIDEO_TS.BUP
Формат : DVD Video
Профиль формата : Menu
Размер файла : 12,0 Кбайт
Режим общего битрейта : Переменный
Видео
Идентификатор : 224 (0xE0)
Формат : MPEG Video
Версия формата : Version 2
Вид битрейта : Переменный
Ширина : 720 пикселей
Высота : 576 пикселей
Соотношение сторон : 4:3
Частота кадров : 25,000 кадров/сек
Стандарт вещания : PAL
Метод сжатия : С потерями
Текст
Формат : RLE
Формат/Информация : Run-length encoding
Битовая глубина : 2 бит
Общее
Полное имя : C:\Users\Roman\Космическая морская пехота\smar\VIDEO_TS.IFO
Формат : DVD Video
Профиль формата : Menu
Размер файла : 12,0 Кбайт
Режим общего битрейта : Переменный
Видео
Идентификатор : 224 (0xE0)
Формат : MPEG Video
Версия формата : Version 2
Вид битрейта : Переменный
Ширина : 720 пикселей
Высота : 576 пикселей
Соотношение сторон : 4:3
Частота кадров : 25,000 кадров/сек
Стандарт вещания : PAL
Метод сжатия : С потерями
Текст
Формат : RLE
Формат/Информация : Run-length encoding
Битовая глубина : 2 бит
Общее
Полное имя : C:\Users\Roman\Космическая морская пехота\smar\VIDEO_TS.VOB
Формат : MPEG-PS
Размер файла : 310 Кбайт
Продолжительность : 40 мс.
Общий поток : 63,5 Мбит/сек
Видео
Идентификатор : 224 (0xE0)
Формат : MPEG Video
Версия формата : Version 2
Профиль формата : Main@Main
Параметр BVOP формата : Нет
Параметр матрицы формата : Выборочная
Продолжительность : 40 мс.
Максимальный битрейт : 8000 Кбит/сек
Ширина : 720 пикселей
Высота : 576 пикселей
Соотношение сторон : 4:3
Частота кадров : 25,000 кадров/сек
Стандарт вещания : PAL
Цветовое пространство : YUV
Субдискретизация насыщенности : 4:2:0
Битовая глубина : 8 бит
Тип развёртки : Прогрессивная
Метод сжатия : С потерями
Текст
Идентификатор : 189 (0xBD)-32 (0x20)
Формат : RLE
Формат/Информация : Run-length encoding
Режим смешивания : DVD-Video
Задержка видео : -50 мс.
Меню
Общее
Полное имя : C:\Users\Roman\Космическая морская пехота\smar\VTS_01_0.BUP
Формат : DVD Video
Профиль формата : Program
Размер файла : 72,0 Кбайт
Продолжительность : 1 ч. 30 м.
Режим общего битрейта : Переменный
Общий поток : 109 бит/сек
Видео
Идентификатор : 224 (0xE0)
Формат : MPEG Video
Версия формата : Version 2
Продолжительность : 1 ч. 30 м.
Вид битрейта : Переменный
Ширина : 720 пикселей
Высота : 576 пикселей
Соотношение сторон : 4:3
Частота кадров : 25,000 кадров/сек
Стандарт вещания : PAL
Метод сжатия : С потерями
Аудио #1
Идентификатор : 128 (0x80)
Формат : AC-3
Формат/Информация : Audio Coding 3
Продолжительность : 1 ч. 30 м.
Каналы : 2 канала
Частота : 48,0 КГц
Метод сжатия : С потерями
Язык : Russian
Аудио #2
Идентификатор : 129 (0x81)
Формат : AC-3
Формат/Информация : Audio Coding 3
Продолжительность : 1 ч. 30 м.
Каналы : 2 канала
Частота : 48,0 КГц
Метод сжатия : С потерями
Язык : English
Меню
Продолжительность : 1 ч. 30 м.
00:00:00.000 : Chapter 1
00:03:34.320 : Chapter 2
00:07:31.800 : Chapter 3
00:22:26.640 : Chapter 4
00:30:28.920 : Chapter 5
00:39:31.080 : Chapter 6
00:53:25.800 : Chapter 7
01:08:25.680 : Chapter 8
01:27:05.880 : Chapter 9
List (Audio) : 0 / 1
Общее
Полное имя : C:\Users\Roman\Космическая морская пехота\smar\VTS_01_0.IFO
Формат : DVD Video
Профиль формата : Program
Размер файла : 72,0 Кбайт
Продолжительность : 1 ч. 30 м.
Режим общего битрейта : Переменный
Общий поток : 109 бит/сек
Видео
Идентификатор : 224 (0xE0)
Формат : MPEG Video
Версия формата : Version 2
Продолжительность : 1 ч. 30 м.
Вид битрейта : Переменный
Ширина : 720 пикселей
Высота : 576 пикселей
Соотношение сторон : 4:3
Частота кадров : 25,000 кадров/сек
Стандарт вещания : PAL
Метод сжатия : С потерями
Аудио #1
Идентификатор : 128 (0x80)
Формат : AC-3
Формат/Информация : Audio Coding 3
Продолжительность : 1 ч. 30 м.
Каналы : 2 канала
Частота : 48,0 КГц
Метод сжатия : С потерями
Язык : Russian
Аудио #2
Идентификатор : 129 (0x81)
Формат : AC-3
Формат/Информация : Audio Coding 3
Продолжительность : 1 ч. 30 м.
Каналы : 2 канала
Частота : 48,0 КГц
Метод сжатия : С потерями
Язык : English
Меню
Продолжительность : 1 ч. 30 м.
00:00:00.000 : Chapter 1
00:03:34.320 : Chapter 2
00:07:31.800 : Chapter 3
00:22:26.640 : Chapter 4
00:30:28.920 : Chapter 5
00:39:31.080 : Chapter 6
00:53:25.800 : Chapter 7
01:08:25.680 : Chapter 8
01:27:05.880 : Chapter 9
List (Audio) : 0 / 1
Общее
Полное имя : C:\Users\Roman\Космическая морская пехота\smar\VTS_01_0.VOB
Формат : MPEG-PS
Размер файла : 702 Кбайт
Продолжительность : 40 мс.
Общий поток : 144 Мбит/сек
Видео
Идентификатор : 224 (0xE0)
Формат : MPEG Video
Версия формата : Version 2
Профиль формата : Main@Main
Параметр BVOP формата : Нет
Параметр матрицы формата : Выборочная
Параметр GOP формата : N=1
Продолжительность : 40 мс.
Максимальный битрейт : 8000 Кбит/сек
Ширина : 720 пикселей
Высота : 576 пикселей
Соотношение сторон : 4:3
Частота кадров : 25,000 кадров/сек
Стандарт вещания : PAL
Цветовое пространство : YUV
Субдискретизация насыщенности : 4:2:0
Битовая глубина : 8 бит
Тип развёртки : Прогрессивная
Метод сжатия : С потерями
Текст
Идентификатор : 189 (0xBD)-32 (0x20)
Формат : RLE
Формат/Информация : Run-length encoding
Режим смешивания : DVD-Video
Меню
Общее
Полное имя : C:\Users\Roman\Космическая морская пехота\smar\VTS_01_1.VOB
Формат : MPEG-PS
Размер файла : 1024 Мбайт
Продолжительность : 24 м.
Режим общего битрейта : Переменный
Общий поток : 5778 Кбит/сек
Видео
Идентификатор : 224 (0xE0)
Формат : MPEG Video
Версия формата : Version 2
Профиль формата : Main@Main
Параметр BVOP формата : Да
Параметр матрицы формата : Выборочная
Параметр GOP формата : Variable
Структура изображения : Frame
Продолжительность : 24 м.
Вид битрейта : Переменный
Битрейт : 5247 Кбит/сек
Максимальный битрейт : 8800 Кбит/сек
Ширина : 720 пикселей
Высота : 576 пикселей
Соотношение сторон : 4:3
Частота кадров : 25,000 кадров/сек
Стандарт вещания : PAL
Цветовое пространство : YUV
Субдискретизация насыщенности : 4:2:0
Битовая глубина : 8 бит
Тип развёртки : Чересстрочная
Порядок развёртки : Верхнее поле первое
Метод сжатия : С потерями
Бит/(Пиксели*Кадры) : 0.506
Временной код первого кадра : 00:59:59:18
Оригинал временного кода : Group of pictures header
GOP, открыто/закрыто : Открыто
GOP, открыто/закрыто на первом кадре : Закрыто
Размер потока : 930 Мбайт (91%)
Аудио #1
Идентификатор : 189 (0xBD)-128 (0x80)
Формат : AC-3
Формат/Информация : Audio Coding 3
Расширение режима : CM (complete main)
Параметр Endianness формата : Big
Режим смешивания : DVD-Video
Продолжительность : 24 м.
Вид битрейта : Постоянный
Битрейт : 192 Кбит/сек
Каналы : 2 канала
Расположение каналов : Front: L R
Частота : 48,0 КГц
Частота кадров : 31,250 кадров/сек (1536 spf)
Метод сжатия : С потерями
Размер потока : 34,0 Мбайт (3%)
Аудио #2
Идентификатор : 189 (0xBD)-129 (0x81)
Формат : AC-3
Формат/Информация : Audio Coding 3
Расширение режима : CM (complete main)
Параметр Endianness формата : Big
Режим смешивания : DVD-Video
Продолжительность : 24 м.
Вид битрейта : Постоянный
Битрейт : 224 Кбит/сек
Каналы : 2 канала
Расположение каналов : Front: L R
Частота : 48,0 КГц
Частота кадров : 31,250 кадров/сек (1536 spf)
Метод сжатия : С потерями
Размер потока : 39,7 Мбайт (4%)
Меню
Общее
Полное имя : C:\Users\Roman\Космическая морская пехота\smar\VTS_01_2.VOB
Формат : MPEG-PS
Размер файла : 1024 Мбайт
Продолжительность : 24 м.
Режим общего битрейта : Переменный
Общий поток : 5931 Кбит/сек
Видео
Идентификатор : 224 (0xE0)
Формат : MPEG Video
Версия формата : Version 2
Профиль формата : Main@Main
Параметр BVOP формата : Да
Параметр матрицы формата : Выборочная
Параметр GOP формата : M=3, N=12
Структура изображения : Frame
Продолжительность : 24 м.
Вид битрейта : Переменный
Битрейт : 5397 Кбит/сек
Максимальный битрейт : 8800 Кбит/сек
Ширина : 720 пикселей
Высота : 576 пикселей
Соотношение сторон : 4:3
Частота кадров : 25,000 кадров/сек
Стандарт вещания : PAL
Цветовое пространство : YUV
Субдискретизация насыщенности : 4:2:0
Битовая глубина : 8 бит
Тип развёртки : Чересстрочная
Порядок развёртки : Верхнее поле первое
Метод сжатия : С потерями
Бит/(Пиксели*Кадры) : 0.521
Временной код первого кадра : 01:24:46:16
Оригинал временного кода : Group of pictures header
GOP, открыто/закрыто : Открыто
Размер потока : 932 Мбайт (91%)
Аудио #1
Идентификатор : 189 (0xBD)-128 (0x80)
Формат : AC-3
Формат/Информация : Audio Coding 3
Расширение режима : CM (complete main)
Параметр Endianness формата : Big
Режим смешивания : DVD-Video
Продолжительность : 24 м.
Вид битрейта : Постоянный
Битрейт : 192 Кбит/сек
Каналы : 2 канала
Расположение каналов : Front: L R
Частота : 48,0 КГц
Частота кадров : 31,250 кадров/сек (1536 spf)
Метод сжатия : С потерями
Задержка видео : -440 мс.
Размер потока : 33,1 Мбайт (3%)
Аудио #2
Идентификатор : 189 (0xBD)-129 (0x81)
Формат : AC-3
Формат/Информация : Audio Coding 3
Расширение режима : CM (complete main)
Параметр Endianness формата : Big
Режим смешивания : DVD-Video
Продолжительность : 24 м.
Вид битрейта : Постоянный
Битрейт : 224 Кбит/сек
Каналы : 2 канала
Расположение каналов : Front: L R
Частота : 48,0 КГц
Частота кадров : 31,250 кадров/сек (1536 spf)
Метод сжатия : С потерями
Задержка видео : -472 мс.
Размер потока : 38,7 Мбайт (4%)
Меню
Общее
Полное имя : C:\Users\Roman\Космическая морская пехота\smar\VTS_01_3.VOB
Формат : MPEG-PS
Размер файла : 1024 Мбайт
Продолжительность : 24 м.
Режим общего битрейта : Переменный
Общий поток : 5938 Кбит/сек
Видео
Идентификатор : 224 (0xE0)
Формат : MPEG Video
Версия формата : Version 2
Профиль формата : Main@Main
Параметр BVOP формата : Да
Параметр матрицы формата : Выборочная
Параметр GOP формата : Variable
Структура изображения : Frame
Продолжительность : 24 м.
Вид битрейта : Переменный
Битрейт : 5404 Кбит/сек
Максимальный битрейт : 8800 Кбит/сек
Ширина : 720 пикселей
Высота : 576 пикселей
Соотношение сторон : 4:3
Частота кадров : 25,000 кадров/сек
Стандарт вещания : PAL
Цветовое пространство : YUV
Субдискретизация насыщенности : 4:2:0
Битовая глубина : 8 бит
Тип развёртки : Чересстрочная
Порядок развёртки : Верхнее поле первое
Метод сжатия : С потерями
Бит/(Пиксели*Кадры) : 0.521
Временной код первого кадра : 01:48:54:20
Оригинал временного кода : Group of pictures header
GOP, открыто/закрыто : Открыто
Размер потока : 932 Мбайт (91%)
Аудио #1
Идентификатор : 189 (0xBD)-128 (0x80)
Формат : AC-3
Формат/Информация : Audio Coding 3
Расширение режима : CM (complete main)
Параметр Endianness формата : Big
Режим смешивания : DVD-Video
Продолжительность : 24 м.
Вид битрейта : Постоянный
Битрейт : 192 Кбит/сек
Каналы : 2 канала
Расположение каналов : Front: L R
Частота : 48,0 КГц
Частота кадров : 31,250 кадров/сек (1536 spf)
Метод сжатия : С потерями
Задержка видео : -344 мс.
Размер потока : 33,1 Мбайт (3%)
Аудио #2
Идентификатор : 189 (0xBD)-129 (0x81)
Формат : AC-3
Формат/Информация : Audio Coding 3
Расширение режима : CM (complete main)
Параметр Endianness формата : Big
Режим смешивания : DVD-Video
Продолжительность : 24 м.
Вид битрейта : Постоянный
Битрейт : 224 Кбит/сек
Каналы : 2 канала
Расположение каналов : Front: L R
Частота : 48,0 КГц
Частота кадров : 31,250 кадров/сек (1536 spf)
Метод сжатия : С потерями
Задержка видео : -344 мс.
Размер потока : 38,6 Мбайт (4%)
Меню
Общее
Полное имя : C:\Users\Roman\Космическая морская пехота\smar\VTS_01_4.VOB
Формат : MPEG-PS
Размер файла : 722 Мбайт
Продолжительность : 16 м.
Режим общего битрейта : Переменный
Общий поток : 5942 Кбит/сек
Видео
Идентификатор : 224 (0xE0)
Формат : MPEG Video
Версия формата : Version 2
Профиль формата : Main@Main
Параметр BVOP формата : Да
Параметр матрицы формата : Выборочная
Параметр GOP формата : Variable
Структура изображения : Frame
Продолжительность : 16 м.
Вид битрейта : Переменный
Битрейт : 5407 Кбит/сек
Максимальный битрейт : 8800 Кбит/сек
Ширина : 720 пикселей
Высота : 576 пикселей
Соотношение сторон : 4:3
Частота кадров : 25,000 кадров/сек
Стандарт вещания : PAL
Цветовое пространство : YUV
Субдискретизация насыщенности : 4:2:0
Битовая глубина : 8 бит
Тип развёртки : Чересстрочная
Порядок развёртки : Верхнее поле первое
Метод сжатия : С потерями
Бит/(Пиксели*Кадры) : 0.522
Временной код первого кадра : 02:13:01:07
Оригинал временного кода : Group of pictures header
GOP, открыто/закрыто : Открыто
Размер потока : 657 Мбайт (91%)
Аудио #1
Идентификатор : 189 (0xBD)-128 (0x80)
Формат : AC-3
Формат/Информация : Audio Coding 3
Расширение режима : CM (complete main)
Параметр Endianness формата : Big
Режим смешивания : DVD-Video
Продолжительность : 16 м.
Вид битрейта : Постоянный
Битрейт : 192 Кбит/сек
Каналы : 2 канала
Расположение каналов : Front: L R
Частота : 48,0 КГц
Частота кадров : 31,250 кадров/сек (1536 spf)
Метод сжатия : С потерями
Задержка видео : -200 мс.
Размер потока : 23,3 Мбайт (3%)
Аудио #2
Идентификатор : 189 (0xBD)-129 (0x81)
Формат : AC-3
Формат/Информация : Audio Coding 3
Расширение режима : CM (complete main)
Параметр Endianness формата : Big
Режим смешивания : DVD-Video
Продолжительность : 16 м.
Вид битрейта : Постоянный
Битрейт : 224 Кбит/сек
Каналы : 2 канала
Расположение каналов : Front: L R
Частота : 48,0 КГц
Частота кадров : 31,250 кадров/сек (1536 spf)
Метод сжатия : С потерями
Задержка видео : -200 мс.
Размер потока : 27,2 Мбайт (4%)

Скриншот c названием фильма

Скриншоты




[Profile] [PM]

admin

Gender: Male

Longevity: 7 years 9 months

Posts: 4799

Post 13-Mar-2016 03:24 (after 14 hours)

[Quote]

Спасибо.
Есть еще перевод от Варус-видео
http://rutracker.org/forum/viewtopic.php?t=4763451
Сам фильм смотрел когда-то очень и очень давно. Почти ничего уже не помню.
[Profile] [PM]

CROM@G ®

Gender: Male

Longevity: 4 years 8 months

Posts: 3319

Location: Прибалтика

Post 13-Mar-2016 10:17 (after 6 hours)

[Quote]

admin,
Пожалуйста Этот перевод уже после того появился как двд был слеплен Да и не любитель я по несколько переводов лепить на фильм
[Profile] [PM]

CROM@G ®

Gender: Male

Longevity: 4 years 8 months

Posts: 3319

Location: Прибалтика

Post 13-Mar-2016 15:38 (after 5 hours)

[Quote]

Хмм Станно кудой то я из сидов испарился bw
[Profile] [PM]

$Shorox

Gender: Male

Longevity: 7 years 5 months

Posts: 1887

Post 13-Mar-2016 18:57 (after 3 hours)

[Quote]

croMAG,
Если admin ничего не менял, тогда не знаю.
Я вчера долго не мог скачать пока DHT не включил.
У тебя все раздачи как мультитрекерные сделаны.
[Profile] [PM]

admin

Gender: Male

Longevity: 7 years 9 months

Posts: 4799

Post 13-Mar-2016 19:32 (after 35 minutes)

[Quote]

Кромаг, у тебя шо то напутано. Поставил на закачку - Шорокса одного видно и от него и качает.
DHT наоборот, нужно включить.
[Profile] [PM]

CROM@G ®

Gender: Male

Longevity: 4 years 8 months

Posts: 3319

Location: Прибалтика

Post 13-Mar-2016 19:44 (after 11 minutes)

[Quote]

Терь вроде как работает
[Profile] [PM]
Display posts:    
Reply to topic

Current time is: 05-Jun 22:32

All times are UTC + 3



You cannot post new topics in this forum
You cannot reply to topics in this forum
You cannot edit your posts in this forum
You cannot delete your posts in this forum
You cannot vote in polls in this forum
You cannot attach files in this forum
You cannot download files in this forum