Пылающие колеса / Огненные колёса / Колёса в огне / Wheels of Fire (Cirio H. Santiago / Сирио Сантьяго) [1985, США, Филиппины, фантастика, боевик, постапокалипсис, BDRip-720p] [Unrated Cut] ЛО (Bagorich)

Reply to topic
 
Author Message

AlexNT60 ®

Gender: Male

Longevity: 6 years 8 months

Posts: 103

Location: СПб

Post 20-Jan-2016 23:32

[Quote]

Пылающие колеса / Огненные колёса / Колёса в огне / Wheels of Fire (Unrated Cut)
Страна: США, Филиппины
Жанр: фантастика, боевик, постапокалипсис
Год выпуска: 1985
Продолжительность: 01:21:08
Перевод: Любительский (одноголосый) Bagorich
Режиссер: Cirio H. Santiago / Сирио Сантьяго
В ролях: Гари Уоткинс ,Лаура Бэнкс, Lynda Wiesmeier, Линда Гровенор, Joe Mari Avellana, Джозеф Зуккеро, Джек С. Дэниелс,Стив Парвин, Nigel Hogge,Дэннис Коул
Описание: В постапокалиптическом будущем домами для людей являются надёжно укреплённые автомобили, а всем вокруг заправляют воины больших дорог. Трейс ещё помнит лучшие дни цивилизации, поэтому он стоит особняком от дорожных банд, терроризирующих слабых и беспомощных. Но когда бандиты похищают и насилуют единственного дорогого ему человека — сестру Эрли, Трейс на своей бронированной машине с ядерной начинкой вступает во взрывоопасный бой…
Качество видео: BDRip-720p
Формат видео: MKV
Видео: x264, 4260 кбит/с, 1280x720, 23.976 к/с
Аудио: Русский ЛО (Bagorich) (AC3, 2 ch, 192 Кбит/с)
Аудио 2: Английский (AC3, 2 ch, 192 Кбит/с)
Работа над релизом:


[kp][/kp]
[imdb][/imdb]
Пример русского перевода от Багорич

MediaInfo

General
Unique ID : 215515417234400012073811134933718114282 (0xA222C2720ECC56EB9373AA85C0319FEA)
Complete name : F:\Torrent\Wheels.of.Fire.1985.720p.BluRay.x264.mkv
Format : Matroska
Format version : Version 4 / Version 2
File size : 2.63 GiB
Duration : 1h 21mn
Overall bit rate : 4 645 Kbps
Movie name : Wheels of Fire (1985)
Encoded date : UTC 2016-01-20 18:31:53
Writing application : mkvmerge v8.8.0 ('Wind at my back') 64bit
Writing library : libebml v1.3.3 + libmatroska v1.4.4
DURATION : 01:21:07.776000000
NUMBER_OF_FRAMES : 152118
NUMBER_OF_BYTES : 116826624
_STATISTICS_WRITING_APP : mkvmerge v8.8.0 ('Wind at my back') 64bit
_STATISTICS_WRITING_DATE_UTC : 2016-01-20 18:31:53
_STATISTICS_TAGS : BPS DURATION NUMBER_OF_FRAMES NUMBER_OF_BYTES
Video
ID : 1
Format : AVC
Format/Info : Advanced Video Codec
Format profile : High@L4.1
Format settings, CABAC : Yes
Format settings, ReFrames : 5 frames
Codec ID : V_MPEG4/ISO/AVC
Duration : 1h 21mn
Bit rate : 4 260 Kbps
Width : 1 280 pixels
Height : 720 pixels
Display aspect ratio : 16:9
Frame rate mode : Constant
Frame rate : 23.976 fps
Color space : YUV
Chroma subsampling : 4:2:0
Bit depth : 8 bits
Scan type : Progressive
Bits/(Pixel*Frame) : 0.193
Stream size : 2.36 GiB (90%)
Writing library : x264 core 148 r2638 7599210
Encoding settings : cabac=1 / ref=5 / deblock=1:-3:-3 / analyse=0x3:0x113 / me=umh / subme=8 / psy=1 / psy_rd=1.00:0.25 / mixed_ref=1 / me_range=24 / chroma_me=1 / trellis=1 / 8x8dct=1 / cqm=0 / deadzone=21,11 / fast_pskip=1 / chroma_qp_offset=-4 / threads=12 / lookahead_threads=2 / sliced_threads=0 / nr=0 / decimate=1 / interlaced=0 / bluray_compat=0 / constrained_intra=0 / bframes=3 / b_pyramid=2 / b_adapt=2 / b_bias=0 / direct=3 / weightb=1 / open_gop=0 / weightp=2 / keyint=240 / keyint_min=24 / scenecut=40 / intra_refresh=0 / rc_lookahead=50 / rc=2pass / mbtree=1 / bitrate=4260 / ratetol=1.0 / qcomp=0.60 / qpmin=0 / qpmax=69 / qpstep=4 / cplxblur=20.0 / qblur=0.5 / vbv_maxrate=62500 / vbv_bufsize=78125 / nal_hrd=none / filler=0 / ip_ratio=1.40 / aq=1:0.50
Default : Yes
Forced : No
Audio #1
ID : 2
Format : AC-3
Format/Info : Audio Coding 3
Mode extension : CM (complete main)
Format settings, Endianness : Big
Codec ID : A_AC3
Duration : 1h 21mn
Bit rate mode : Constant
Bit rate : 192 Kbps
Channel(s) : 2 channels
Channel positions : Front: L R
Sampling rate : 48.0 KHz
Bit depth : 16 bits
Compression mode : Lossy
Stream size : 111 MiB (4%)
Title : AVO
Language : Russian
Default : Yes
Forced : No
Audio #2
ID : 3
Format : AC-3
Format/Info : Audio Coding 3
Mode extension : CM (complete main)
Format settings, Endianness : Big
Codec ID : A_AC3
Duration : 1h 21mn
Bit rate mode : Constant
Bit rate : 192 Kbps
Channel(s) : 2 channels
Channel positions : Front: L R
Sampling rate : 48.0 KHz
Bit depth : 16 bits
Compression mode : Lossy
Stream size : 111 MiB (4%)
Language : English
Default : No
Forced : No
Menu
00:00:00.000 : en:00:00:00.000
00:09:53.551 : en:00:09:53.551
00:20:33.941 : en:00:20:33.941
00:29:38.485 : en:00:29:38.485
00:39:57.478 : en:00:39:57.478
00:50:09.632 : en:00:50:09.632
01:00:10.106 : en:01:00:10.106
01:10:04.992 : en:01:10:04.992
01:19:34.228 : en:01:19:34.228

Скриншот c названием фильма

Скриншоты






















Скринлист

[Profile] [PM]

admin

Gender: Male

Longevity: 7 years 1 month

Posts: 4725

Location: Україна

Post 21-Jan-2016 01:32 (after 1 hour 59 minutes)

[Quote]

Спасибо!
Что за манера пошла у современных издателей BD-disc картинку обрезать?
http://screenshotcomparison.com/comparison/158775

[Profile] [PM]

Guest

Gender: Unknown

Post 24-Jan-2016 16:30 (after 3 days)

[Quote]

12899Спасибо!
Что за манера пошла у современных издателей BD-disc картинку обрезать?
http://screenshotcomparison.com/comparison/158775
Так ясно для чего. Квадратных теликов больше нет. Вот и стараются под новые стандарты старые видеофайлы запилить. Интересно вот что,. - только у нас, в странах бывшего СССР, на эти казусы обращают внимание?
 

Faer

Gender: Male

Longevity: 4 years 9 months

Posts: 349

Location: Сербия

Post 24-Jan-2016 17:23 (after 52 minutes)

[Quote]

Так ясно для чего. Квадратных теликов больше нет. Вот и стараются под новые стандарты старые видеофайлы запилить. Интересно вот что,. - только у нас, в странах бывшего СССР, на эти казусы обращают внимание?
Наверное вы хотели сказать, что квадратные телевизоры с большой диагональю не производят. Хотя телевизоры, которые нарекли "дачными", думаю, ещё довольно продолжительное время будут производить: на даче, на кухне, в подсобке они незаменимы. Но уже сейчас "середина" телевизоров вымирает, гораздо легче на смартфоне/кпк смотреть фильмы вне дома, и HD-телевизор собс-но в доме. Отсюда и ориентация на широкоформат.
[Profile] [PM]

admin

Gender: Male

Longevity: 7 years 1 month

Posts: 4725

Location: Україна

Post 24-Jan-2016 17:40 (after 16 minutes)

[Quote]

Кнопку ZOOM на пульте еще никто не отменял - получится та же широкоэкранка с обрезанным верхом и низом.
Мое мнение - фильмы должны издаваться так. как изначально были сняты.
[Profile] [PM]

$Shorox

Gender: Male

Longevity: 6 years 9 months

Posts: 1888

Post 24-Jan-2016 21:57 (after 4 hours)

[Quote]

12965Мое мнение - фильмы должны издаваться так. как изначально были сняты.
Согласен.
[Profile] [PM]
Display posts:    
Reply to topic

Current time is: 14-Oct 08:59

All times are UTC + 3



You cannot post new topics in this forum
You cannot reply to topics in this forum
You cannot edit your posts in this forum
You cannot delete your posts in this forum
You cannot vote in polls in this forum
You cannot attach files in this forum
You cannot download files in this forum