Всадники солнца / Raiders of the Sun (Сирио Сантьяго / Cirio H. Santiago) [1992 г., Фантастика, боевик, приключения, DVDRip] АО А.Дольский

Reply to topic
 
Author Message

admin ®

Gender: Male

Longevity: 7 years 3 months

Posts: 4813

Post 04-Dec-2012 01:15

[Quote]

Всадники солнца / Raiders of the Sun
Год выпуска: 1992
Страна: США, New Concorde
Жанр: Фантастика, боевик, постапокалипсис
Продолжительность: 01:20:32
Перевод: АО А.Дольский
Режиссер: Сирио Сантьяго / Cirio H. Santiago
В ролях: Ричард Нортон, Уильям Стейс, Генри Стрцалковский, Ник Николсон, Рик Дин, Джозеф Зукчеро, Бриджитта Стенберг, Бон Вибар
Описание: Действие происходит в будущем, в XXI веке. Наступило биологическое бедствие, земля стала бесплодной. Миром управляют кровожадные монстры. В живых осталось всего несколько сотен людей и они пытаются вести борьбу с захватчиками, часто безуспешную.
Но среди этой горстки людей наконец появляется новый воин, который способен противостоять всему скопившемуся злу. Для него основным качеством является храбрость, и он не остановится ни перед чем для достижения своей цели — спасения уже новой Земли

Качество: DVDRip
Формат: MKV
Видео: x264, 2232 кбит/с, 720x548, 23.976 к/с, 2 pass
Аудио 1: Русский А.Дольский (AC3, 2 ch, 192 Кбит/с)
Аудио 2: Английский (AC3, 2 ch, 192 Кбит/с)


Релиз

Рип с ДВД5 с CG - sasha20072007
Отдельная благодарность AlexNT за предоставленную русскую дорожку
Для Украины: рип и оригинальный ДВД дополнительно залиты в файлохранилище
Для удаления и добавления дорожек в mkv используйте бесплатную mkvmerge GUI 5.80

Дополнительно

слоган «They don't take prisoners. They take lives.»
Also Known As (AKA)
Rescue Man - Einzelkämpfer ohne Gnade Germany

MediaInfo

Общее
Уникальный идентификатор : 232612191160542298544084539519630482118 (0xAEFF7A7AF3175915999E2FB13DCE9AC6)
Полное имя : F:\Всадники солнца Raiders of the Sun 1992.x264.DVDRip.mkv
Формат : Matroska
Версия формата : Version 4 / Version 2
Размер файла : 1,47 Гбайт
Продолжительность : 1 ч. 20 м.
Общий поток : 2618 Кбит/сек
Название фильма : Всадники солнца / Raiders of the Sun 1992 / rip by sasha20072007 (2012-12-03)
Дата кодирования : UTC 2010-02-22 21:41:31
Программа кодирования : mkvmerge v5.8.0 ('No Sleep / Pillow') built on Nov 13 2012 19:43:22
Библиотека кодирования : libebml v1.3.0 + libmatroska v1.4.0
Attachment : Yes
Видео
Идентификатор : 1
Формат : AVC
Формат/Информация : Advanced Video Codec
Профиль формата : High@L4.1
Параметр CABAC формата : Да
Параметр ReFrames формата : 8 кадров
Идентификатор кодека : V_MPEG4/ISO/AVC
Продолжительность : 1 ч. 20 м.
Битрейт : 2232 Кбит/сек
Ширина : 720 пикселей
Высота : 548 пикселей
Соотношение сторон : 4:3
Режим частоты кадров : Постоянный
Частота кадров : 23,976 кадра/сек
Цветовое пространство : YUV
Субдискретизация насыщенности : 4:2:0
Битовая глубина : 8 бит
Тип развёртки : Прогрессивная
Бит/(Пиксели*Кадры) : 0.236
Размер потока : 1,23 Гбайт (83%)
Библиотека кодирования : x264 core 125 r2208 d9d2288
Настройки программы : cabac=1 / ref=8 / deblock=1:-1:-2 / analyse=0x3:0x133 / me=umh / subme=10 / psy=1 / psy_rd=1.00:0.15 / mixed_ref=1 / me_range=24 / chroma_me=1 / trellis=2 / 8x8dct=1 / cqm=0 / deadzone=21,11 / fast_pskip=1 / chroma_qp_offset=-3 / threads=4 / lookahead_threads=1 / sliced_threads=0 / nr=0 / decimate=1 / interlaced=0 / bluray_compat=0 / constrained_intra=0 / bframes=10 / b_pyramid=2 / b_adapt=2 / b_bias=0 / direct=3 / weightb=1 / open_gop=0 / weightp=2 / keyint=220 / keyint_min=22 / scenecut=40 / intra_refresh=0 / rc_lookahead=60 / rc=2pass / mbtree=1 / bitrate=2232 / ratetol=1.0 / qcomp=0.60 / qpmin=0 / qpmax=69 / qpstep=4 / cplxblur=20.0 / qblur=0.5 / vbv_maxrate=17500 / vbv_bufsize=14000 / nal_hrd=none / ip_ratio=1.40 / aq=1:0.90
Default : Да
Forced : Нет
Аудио #1
Идентификатор : 2
Формат : AC-3
Формат/Информация : Audio Coding 3
Расширение режима : CM (complete main)
Параметр Endianness формата : Big
Идентификатор кодека : A_AC3
Продолжительность : 1 ч. 20 м.
Вид битрейта : Постоянный
Битрейт : 192 Кбит/сек
Каналы : 2 канала
Расположение каналов : Front: L R
Частота : 48,0 КГц
Битовая глубина : 16 бит
Метод сжатия : С потерями
Размер потока : 111 Мбайт (7%)
Заголовок : Русский АО (А.Дольский)
Язык : Russian
Default : Да
Forced : Нет
Аудио #2
Идентификатор : 3
Формат : AC-3
Формат/Информация : Audio Coding 3
Расширение режима : CM (complete main)
Параметр Endianness формата : Big
Идентификатор кодека : A_AC3
Продолжительность : 1 ч. 20 м.
Вид битрейта : Постоянный
Битрейт : 192 Кбит/сек
Каналы : 2 канала
Расположение каналов : Front: L R
Частота : 48,0 КГц
Битовая глубина : 16 бит
Метод сжатия : С потерями
Размер потока : 111 Мбайт (7%)
Язык : English
Default : Нет
Forced : Нет
Меню
00:00:00.000 : :Chapter 01
00:01:00.634 : :Chapter 02
00:07:52.801 : :Chapter 03
00:10:46.435 : :Chapter 04
00:15:00.969 : :Chapter 05
00:24:11.102 : :Chapter 06
00:37:36.169 : :Chapter 07
00:40:44.003 : :Chapter 08
00:50:03.837 : :Chapter 09
01:08:27.638 : :Chapter 10
01:16:31.771 : :Chapter 11
01:18:43.804 : :Chapter 12

Скриншоты




Файл дополнительно залит на ОБЛАКО
[Profile] [PM]

Guest

Gender: Unknown

Post 27-Nov-2015 21:48 (after 2 years 11 months)

[Quote]

И фильм г..но, и перевод г..но.
Что тут еще скажешь? Хоть бы актрису посимпатичней выбрали,но и здесь не айс.
В топку.
 

Трамвай-фильм

Gender: Male

Longevity: 5 years 4 months

Posts: 1711

Location: Россия

Post 28-Nov-2015 01:42 (after 3 hours)

[Quote]

Типичный ПА, сто лет назад смотрел, но толком так и не запомнил что там такое было. Фильм своей (кассетной) эпохи.
[Profile] [PM]
Quick Reply

Name:

            
Heads necessary to send messages to enable JavaScript
Display posts:    
Reply to topic

Current time is: 16-Dec 06:25

All times are UTC + 3



You cannot post new topics in this forum
You can reply to topics in this forum
You cannot edit your posts in this forum
You cannot delete your posts in this forum
You cannot vote in polls in this forum
You cannot attach files in this forum
You cannot download files in this forum