Максимальное ускорение / Maximum Velocity (Филлип Дж. Рот / Phillip J. Roth (as Phillip Roth)) [2003, США, Боевик, фильм-катастрофа, DVDRip] ПМ (ИНИС)

Reply to topic
 
Author Message

admin ®

Gender: Male

Longevity: 7 years 10 months

Posts: 4799

Post 05-Aug-2015 00:56

[Quote]

Максимальное ускорение / Maximum Velocity
Страна: США, MV Productions LLC
Жанр: Боевик, фильм-катастрофа, фантастика
Год выпуска: 2003
Продолжительность: 01:32:26
Перевод: Профессиональный (многоголосый) студия ИНИС
Режиссер: Филлип Дж. Рот / Phillip J. Roth (as Phillip Roth)
В ролях:
Michael Ironside ... General Amberson
Dale Midkiff ... Dr. Timothy Briggs
Wendy Carter ... Dr. Natalie Jamas
Gregor Törzs ... Andy (as Gregor Toerzs)
Jennifer Jostyn ... Karen Briggs (1973-2002)
P.K. Ewing ... Commander Ricks
Alan Austin ... Hitchins
Jeff Rank ... Echolson
Ralph Goff ... Ross
Jennifer Warkel ... Sarah
Kate Goggin ... Trish
Jeffrey Gorman ... Security Guard
Tyrone Pinkham ... Jack - Floor Director
Jon Barnes ... Chet - Anchorman
Lance Chwan ... Suit
Описание: Примерно раз в 300 лет на землю обрушивается шторм небывалой силы. Тёмное небо рассекают ослепительные молнии, ураганный ветер сравнивает с землёй всё, что встречается у него на пути, а непроходимая стена дождя смывает то, что останется после него. Из-за ухудшения экологической обстановки такие стихийные бедствия случаются всё чаще и чаще. И вот очередной шторм сверхразрушительной силы, родившись где-то на просторах Атлантического океана, движется в сторону Американского континента. Если срочно не предпринять экстренных мер, то уже завтра погибнут сотни тысяч людей и на месте больших городов не останется и камня на камне. Доктор Тимоти Бригз — единственный, кто знает ответ — нужно запустить ракеты со специальным веществом в самое «сердце» шторма. Чтобы осуществить этот дерзкий план, в эпицентр бушующей стихии отправляется группа специалистов на сверхскоростных военных самолётах…
Качество: DVDRip
Формат: MKV
Видео: DivX, 1495 кбит/с, 640x480, ~24.185 к/с
Аудио 1: Русский ПМ (ИНИС) (AC3, 2 ch, 192 Кбит/с)
Аудио 2: Английский (AC3, 2 ch, 192 Кбит/с)
Работа над релизом:
Рип найден на CG.
Синхронизация русской дорожки - kosmoaelita



Пример русского перевода

Дополнительно

рейтинг MPAA детям до 13 лет просмотр не желателен
Also Known As (AKA)
Brazil Velocidade do Vento
Spain En el ojo del huracán
France (TV title) Méga cyclone
UK (DVD title) Mamimum Impact
Greece (transliterated ISO-LATIN-1 title) Fonikes kataigides
Hungary Szupervihar - Végveszélyben
Sweden Megastorm
================================================
Для Украины: рип и оригинальный ДВД дополнительно залиты в файлохранилище
Для удаления,добавления и извлечения дорожек в mkv используйте бесплатную портативную mkvmerge GUI 7.1.0
Для присоединения потом дорожек к avi воспользуйтесь VirtualDubMod

Отзывы

Ну фильм так ничего себе, все на месте. Но тема очень избитая, плохие военные, хорошие ученые, грозящий апокалипсис и спасение мира. Посмотреть разок можно.
-----------------------------------

MediaInfo

Общее
Уникальный идентификатор : 193312663076992493020608674050431540862 (0x916EAA262B6BB4C1B72291BA3DE85E7E)
Полное имя : H:\1111\Maximum Velocity 2003.DivX.DVDRip.Rus.kosmoaelita.mkv
Формат : Matroska
Версия формата : Version 4 / Version 2
Размер файла : 1,24 Гбайт
Продолжительность : 1 ч. 32 м.
Общий поток : 1917 Кбит/сек
Название фильма : Maximum Velocity / 2003
Дата кодирования : UTC 2015-08-06 01:18:37
Программа кодирования : mkvmerge v6.6.0 ('The Edge Of The In Between') built on Dec 1 2013 17:55:00
Библиотека кодирования : libebml v1.3.0 + libmatroska v1.4.1
Видео
Идентификатор : 1
Формат : MPEG-4 Visual
Профиль формата : Simple@L1
Параметр BVOP формата : Нет
Параметр QPel формата : Нет
Параметр GMC формата : Без точки перехода
Параметр матрицы формата : Default (H.263)
Идентификатор кодека : V_MS/VFW/FOURCC / DIVX
Идентификатор кодека/Информация : Project Mayo
Идентификатор кодека/Подсказка : DivX 4
Битрейт : 1495 Кбит/сек
Ширина : 640 пикселей
Высота : 480 пикселей
Соотношение сторон : 4:3
Режим частоты кадров : Переменный
Цветовое пространство : YUV
Субдискретизация насыщенности : 4:2:0
Битовая глубина : 8 бит
Тип развёртки : Прогрессивная
Метод сжатия : С потерями
Библиотека кодирования : Lavc52.30.1
Default : Да
Forced : Нет
Аудио #1
Идентификатор : 2
Формат : AC-3
Формат/Информация : Audio Coding 3
Расширение режима : CM (complete main)
Параметр Endianness формата : Big
Идентификатор кодека : A_AC3
Продолжительность : 1 ч. 32 м.
Вид битрейта : Постоянный
Битрейт : 192 Кбит/сек
Каналы : 2 канала
Расположение каналов : Front: L R
Частота : 48,0 КГц
Битовая глубина : 16 бит
Метод сжатия : С потерями
Размер потока : 127 Мбайт (10%)
Заголовок : Русский ПМ (студия ИНИС)
Язык : Russian
Default : Да
Forced : Нет
Аудио #2
Идентификатор : 3
Формат : AC-3
Формат/Информация : Audio Coding 3
Расширение режима : CM (complete main)
Параметр Endianness формата : Big
Идентификатор кодека : A_AC3
Продолжительность : 1 ч. 32 м.
Вид битрейта : Постоянный
Битрейт : 192 Кбит/сек
Каналы : 2 канала
Расположение каналов : Front: L R
Частота : 48,0 КГц
Битовая глубина : 16 бит
Метод сжатия : С потерями
Размер потока : 127 Мбайт (10%)
Язык : English
Default : Нет
Forced : Нет

Скриншоты
















Скринлист

cd Рип дополнительно залит на ОБЛАКО cd2


Last edited by admin on 2015-08-07 09:51; edited 5 times in total
[Profile] [PM]

Guest

Gender: Unknown

Post 05-Aug-2015 19:50 (after 18 hours)

[Quote]

Ранний Рот был очень неплохой, но 21ый век сломал многих хороших режиссёров....
 
Display posts:    
Reply to topic

Current time is: 10-Jul 00:52

All times are UTC + 3



You cannot post new topics in this forum
You cannot reply to topics in this forum
You cannot edit your posts in this forum
You cannot delete your posts in this forum
You cannot vote in polls in this forum
You cannot attach files in this forum
You cannot download files in this forum