Провал во времени / Временной сдвиг / Timeslip (Уилли Паттерсон / Willi Patterson) [1985, Великобритания, Фантастика, VHSRip] (СТ : karlivanovich) (Sub Rus)

Reply to topic
 
Author Message

$Shorox ®

Gender: Male

Longevity: 7 years 3 months

Posts: 1888

Post 25-Jul-2015 00:17

[Quote]

Провал во времени / Временной сдвиг / Timeslip
Страна: Великобритания
Жанр: Фантастика
Год выпуска: 1985
Продолжительность: 00:26:44
Перевод: Субтитры karlivanovich перевод на слух по заказу kosmoaelita.com
Cубтитры: русские
Режиссер: Уилли Паттерсон / Willi Patterson
В ролях: Брайан Фэйрмэн, Джефф Хардинг, Вирджиния Хей, Мэннинг Редвуд, Лиза Росс, Джон Тейлор
Описание: Пилотная серия "Блок" сериала "Провал во времени" (Timeslip). Сериал закрылся. Мог быть неплохим.
Похоже так должно было быть: Хакер взломал систему, путешествует во времени, смотрит истории и в конце комментирует.
Серия "Блок" снята по произведению Роберта Холмса.
Список серий.
1. Блок - The block


Сэмпл
Работа над релизом:
Релиз kosmoaelita
Тайминг субтитров - $Shorox
Русский релиз увидел свет благодаря kosmoaelita, $Shorox
Перевод - karlivanovich
Рип найден на myspleen.org

Качество видео: VHSRip
Формат видео: MKV
Видео: AVC, 704x538, 4:3, 2 221 Kbps, 25.000 fps
Аудио: Английский, AC-3, 192 Kbps, 2 channels, 48.0 KHz
Формат субтитров: prerendered (IDX+SUB)
Доп. информация о субтитрах: karlivanovich
Пример русских субтитров

MediaInfo

General
Complete name : F:\Timeslip Pilot The Block 1985\Timeslip Pilot The Block 1985.VHSRip.kosmoaelita.mkv
Format : Matroska
Format version : Version 4 / Version 2
File size : 462 MiB
Duration : 26mn 43s
Overall bit rate : 2 415 Kbps
Movie name : Timeslip - The Block 1985 / kosmoaelita
Encoded date : UTC 2015-07-24 20:37:35
Writing application : mkvmerge v7.9.0 ('Birds') 64bit
Writing library : libebml v1.3.1 + libmatroska v1.4.2
DURATION : 00:25:53.859000000
NUMBER_OF_FRAMES : 269
NUMBER_OF_BYTES : 14454
_STATISTICS_WRITING_APP : mkvmerge v7.9.0 ('Birds') 64bit
_STATISTICS_WRITING_DATE_UTC : 2015-07-24 20:37:35
_STATISTICS_TAGS : BPS DURATION NUMBER_OF_FRAMES NUMBER_OF_BYTES
Attachment : Yes
Video
ID : 1
Format : AVC
Format/Info : Advanced Video Codec
Format profile : High@L4.1
Format settings, CABAC : Yes
Format settings, ReFrames : 9 frames
Codec ID : V_MPEG4/ISO/AVC
Duration : 26mn 43s
Bit rate : 2 221 Kbps
Width : 704 pixels
Height : 538 pixels
Display aspect ratio : 4:3
Frame rate mode : Constant
Frame rate : 25.000 fps
Color space : YUV
Chroma subsampling : 4:2:0
Bit depth : 8 bits
Scan type : Progressive
Bits/(Pixel*Frame) : 0.235
Stream size : 416 MiB (90%)
Title : kosmoaelita
Writing library : x264 core 130 r2273 b3065e6
Encoding settings : cabac=1 / ref=9 / deblock=1:-1:-1 / analyse=0x3:0x133 / me=umh / subme=11 / psy=1 / psy_rd=0.99:0.14 / mixed_ref=1 / me_range=24 / chroma_me=1 / trellis=2 / 8x8dct=1 / cqm=0 / deadzone=21,11 / fast_pskip=1 / chroma_qp_offset=-3 / threads=6 / lookahead_threads=1 / sliced_threads=0 / nr=0 / decimate=1 / interlaced=0 / bluray_compat=0 / constrained_intra=0 / bframes=9 / b_pyramid=2 / b_adapt=2 / b_bias=0 / direct=3 / weightb=1 / open_gop=0 / weightp=2 / keyint=210 / keyint_min=21 / scenecut=40 / intra_refresh=0 / rc_lookahead=80 / rc=2pass / mbtree=1 / bitrate=2221 / ratetol=1.0 / qcomp=0.65 / qpmin=0 / qpmax=69 / qpstep=4 / cplxblur=20.0 / qblur=0.5 / ip_ratio=1.25 / aq=1:0.90
Default : Yes
Forced : No
Color primaries : BT.601 PAL
Transfer characteristics : BT.470 System B, BT.470 System G
Matrix coefficients : BT.601
Audio
ID : 2
Format : AC-3
Format/Info : Audio Coding 3
Mode extension : CM (complete main)
Format settings, Endianness : Big
Codec ID : A_AC3
Duration : 26mn 43s
Bit rate mode : Constant
Bit rate : 192 Kbps
Channel(s) : 2 channels
Channel positions : Front: L R
Sampling rate : 48.0 KHz
Bit depth : 16 bits
Compression mode : Lossy
Stream size : 36.7 MiB (8%)
Title : Английский
Language : English
Default : Yes
Forced : No
Text
ID : 3
Format : UTF-8
Codec ID : S_TEXT/UTF8
Codec ID/Info : UTF-8 Plain Text
Title : Русский (karlivanovich-kosmoaelita.com)
Language : Russian
Default : Yes
Forced : No

Скриншот c названием фильма

Скриншоты








Last edited by $Shorox on 2015-07-25 18:01; edited 1 time in total
[Profile] [PM]

admin

Gender: Male

Longevity: 7 years 7 months

Posts: 4811

Post 25-Jul-2015 16:16 (after 15 hours)

[Quote]

Честно говоря, название "Провал во времени" к пилоту как-то не совсем подходит.
Один товарищ, желая уединиться с подружкой, приказывает электронной хозяйке "очень умного дома" отключить все сканеры и идентификацию.
В результате, охранная система восприняла парочку. как нарушителей и решила их прикончить...
Вывод - очень умным компьютерам нужно отдавать очень точные и умные приказы, если. конечно. хочешь жить смайлик+
Середина 80-х куча электроники в доме. Куча разных автоответчиков, но до сотового телефона мозги не доросли смайлик+


Last edited by admin on 2015-07-25 16:40; edited 1 time in total
[Profile] [PM]

$Shorox ®

Gender: Male

Longevity: 7 years 3 months

Posts: 1888

Post 25-Jul-2015 16:31 (after 14 minutes)

[Quote]

admin,
Так сериал назвали.
Серия "Блок" называется. Наверное в смысле "блокированные".
11544 Куча разных автоответчиков, но до сотового телефона мозги не доросли смайлик+
Девка зато у него электронная.
[Profile] [PM]

Трамвай-фильм

Gender: Male

Longevity: 5 years 8 months

Posts: 1826

Location: Россия

Post 25-Jul-2015 17:51 (after 1 hour 20 minutes)

[Quote]

11544Честно говоря, название "Провал во времени" к пилоту как-то не совсем подходит.
я бы назвал "временной сдвиг"
[Profile] [PM]

$Shorox ®

Gender: Male

Longevity: 7 years 3 months

Posts: 1888

Post 25-Jul-2015 18:32 (after 40 minutes)

[Quote]

Трамвай-фильм,
Можно и так назвать.
Будет на сайте три фильма с одинаковыми названиями.
http://kosmoaelita.com/viewtopic.php?p=11535
http://kosmoaelita.com/viewtopic.php?t=874
Этот фильм показали один раз по ТВ и забыли надолго. Несколько дней один человек с кассеты его рипанул и раздал. Его можем назвать как захотим. Мы его в прокат запустили на русском.
SpatulaCity
Found this on an old Betamax tape I got off eBay last week - never even knew it existed until now!
JOHN TAYLOR (bassist in Duran Duran) stars as a computer hacker in a sci-fi TV Pilot that never got commissioned (can't think why).
Made by Yorkshire TV (UK), think a very low budget Blade Runner and you're on your way.
[Profile] [PM]

Guest

Gender: Unknown

Post 26-Jul-2015 00:03 (after 5 hours)

[Quote]

Готов немного поддержать проект, через личку.
 

$Shorox ®

Gender: Male

Longevity: 7 years 3 months

Posts: 1888

Post 26-Jul-2015 05:22 (after 5 hours)

[Quote]

innominate,
В этой теме нет никакого проекта. Была снята всего одна серия.
Предполагаю, из-за того что на главную роль режисёр пригласил суперзвезду Джона Тейлора из Duran Duran. Ему в то время не до съёмок в сериалах было, да и гонорар за съёмки должен стать заоблачный.
[Profile] [PM]

admin

Gender: Male

Longevity: 7 years 7 months

Posts: 4811

Post 26-Jul-2015 07:10 (after 1 hour 48 minutes)

[Quote]

11551Готов немного поддержать проект, через личку.
Можете здесь поддержать.
Дети путешествуют во времени.
http://kosmoaelita.com/viewtopic.php?t=1892
[Profile] [PM]

Guest

Gender: Unknown

Post 26-Jul-2015 21:18 (after 14 hours)

[Quote]

admin, да, я перепутал темы, сорри.
 
Display posts:    
Reply to topic

Current time is: 09-Apr 00:05

All times are UTC + 3



You cannot post new topics in this forum
You cannot reply to topics in this forum
You cannot edit your posts in this forum
You cannot delete your posts in this forum
You cannot vote in polls in this forum
You cannot attach files in this forum
You cannot download files in this forum